Michael Pavlovich - Intro To ZBrush 4R7 Part 3 (2015) торрент

Ответить на тему
 
Автор Сообщение

Prescious ®

Michael Pavlovich | Intro To ZBrush 4R7 Part 3 (2015) PCRec [En, Ru] - Автор: Michael Pavlovich
Производство: Gumroad
Жанр: Создание видео
Описание:
Майкл Павлович - художник по персонажам, его специализация - 3D концепт арт и продакшн пайплайны.
В 2005 закончил Ринглингский колледж искусств и дизайна, получив степень бакалавра изящных искусств в комптютерной анимации.
Начал свою карьеру в Electronic Arts в качестве художника по окружению, работал над такими проектами, как Madden NFL и NCAA Football, затем занимался анимацией персонажей комиксов DC Universe Online в составе Sony Online Entertainment.
Сейчас Майкл занимается созданием персонажей, оружия, транспортных средств, а также концепт артом для таких топовых видеоигр, как Halo, Call of Duty и DOOM в качестве ведущего художника (Senior Artist) для Certain Affinity.
Эта компания находится в Остине, штат Техас.
Продолжительность: 07:41:60
Качество видео: PCRec
Язык озвучки: Английский, Русский
Видео: AVC/H.264, 1920x1080, ~413kbps
Аудио: AAC, 2 ch, 53kbps
Аудио 2: MP3, 2 ch, 128 kbps (отдельным файлом)

MediaInfo:

General
Complete name : K:\[Gumroad] Intro To ZBrush 4R7 Part 3 [ENG-RUS]\002 Sculpt Refine.mp4
Format : MPEG-4
Format profile : Base Media / Version 2
Codec ID : mp42 (isom/mp42)
File size : 17.6 MiB
Duration : 5 min 13 s
Overall bit rate mode : Variable
Overall bit rate : 470 kb/s
Movie name : 067_Sculpt Refine
Encoded date : UTC 2015-10-27 01:28:44
Tagged date : UTC 2015-10-27 01:28:44
Video
ID : 1
Format : AVC
Format/Info : Advanced Video Codec
Format profile : Baseline@L4
Format settings : 3 Ref Frames
Format settings, CABAC : No
Format settings, Reference fra : 3 frames
Codec ID : avc1
Codec ID/Info : Advanced Video Coding
Duration : 5 min 13 s
Bit rate : 414 kb/s
Width : 1 920 pixels
Height : 1 080 pixels
Display aspect ratio : 16:9
Frame rate mode : Constant
Frame rate : 30.000 FPS
Standard : NTSC
Color space : YUV
Chroma subsampling : 4:2:0
Bit depth : 8 bits
Scan type : Progressive
Bits/(Pixel*Frame) : 0.007
Stream size : 15.5 MiB (88%)
Language : English
Encoded date : UTC 2015-10-27 01:28:44
Tagged date : UTC 2015-10-27 01:28:44
Color range : Limited
Codec configuration box : avcC
Audio
ID : 2
Format : AAC LC
Format/Info : Advanced Audio Codec Low Complexity
Codec ID : mp4a-40-2
Duration : 5 min 13 s
Bit rate mode : Variable
Bit rate : 53.7 kb/s
Maximum bit rate : 68.6 kb/s
Channel(s) : 2 channels
Channel layout : L R
Sampling rate : 44.1 kHz
Frame rate : 43.066 FPS (1024 SPF)
Compression mode : Lossy
Stream size : 2.01 MiB (11%)
Language : English
Encoded date : UTC 2015-10-27 01:28:44
Tagged date : UTC 2015-10-27 01:28:44

Дополнительная информация:

Программное обеспечение: ZBrush 4R7 , KeyShot 5
Файлы примеров: Есть

Содержание:

Данный фундаментальный и всеохватывающий курс по ZBrush 4R7 состоит из 3 частей и позволит вам в полной мере познать все аспекты и возможности этого удивительного и мощного инстумента, который вы можете в дальнейшем использовать для ваших концептов, иллюстраций или производства.
В последней, третьей части нашего курса, длительностью семь с половиной часов, в 67 обучающих видео мы затронем огромный диапазон тем: создание альфа кистей, панели лупов, ZModeler, PolyPainting, материалы, текстуры, освещение, камеры, композитинг, UV-развертки, поверхностные шумы, слои, микро-, нано-, массивы, шерсть и волосы, и многое другое! Также как и в первых двух частях - вы получите бонусное видео (продолжение) по созданию персонажа с обложки курса, используя все, что мы изучили до этого момента.
Скриншоты:
Скачать .torrent

Чтобы скачать торрент-файл

Michael Pavlovich - Intro To ZBrush 4R7 Part 3 (2015)

Вам нужно Авторизоваться на сайте под своим логином. Если у Вы ещё не зарегистрированы, тогда Вам нужно пройти Регистрацию


Показать сообщения:    
Ответить на тему

Скачать Michael Pavlovich - Intro To ZBrush 4R7 Part 3 (2015) торрент бесплатно. Отзывы, слив складчины.

Текущее время: Сегодня 15:52

Часовой пояс: GMT + 4



Вы не можете начинать темы
Вы не можете отвечать на сообщения
Вы не можете редактировать свои сообщения
Вы не можете удалять свои сообщения
Вы не можете голосовать в опросах
Вы не можете прикреплять файлы к сообщениям
Вы не можете скачивать файлы