Новые раздачи

02-Дек
02-Дек
02-Дек
01-Дек
01-Дек
01-Дек
01-Дек
01-Дек
01-Дек
01-Дек
01-Дек
01-Дек
01-Дек
30-Ноя
30-Ноя

Важное

Michael Pavlovich - Intro To ZBrush 4R7 Part 2 (2015) торрент

Ответить на тему
 
Автор Сообщение

Prescious ®

Michael Pavlovich | Intro To ZBrush 4R7 Part 2 (2015) PCRec - Автор: Michael Pavlovich
Производство: Gumroad
Жанр: Создание видео
Описание:
Майкл Павлович - художник по персонажам, его специализация - 3D концепт арт и продакшн пайплайны.
В 2005 закончил Ринглингский колледж искусств и дизайна, получив степень бакалавра изящных искусств в комптютерной анимации.
Начал свою карьеру в Electronic Arts в качестве художника по окружению, работал над такими проектами, как Madden NFL и NCAA Football, затем занимался анимацией персонажей комиксов DC Universe Online в составе Sony Online Entertainment.
Сейчас Майкл занимается созданием персонажей, оружия, транспортных средств, а также концепт артом для таких топовых видеоигр, как Halo, Call of Duty и DOOM в качестве ведущего художника (Senior Artist) для Certain Affinity.
Эта компания находится в Остине, штат Техас.
Продолжительность: 07:52:00
Качество видео: PCRec
Видео: AVC/H.264, 1920x1080, ~3778kbps
Аудио: AAC, 2 ch, 125kbps

MediaInfo:

General
Complete name : K:\[Gumroad] Intro To ZBrush 4R7 Part 2 [RUS]\001 Part 2 Intro.mp4
Format : MPEG-4
Format profile : Base Media / Version 2
Codec ID : mp42 (mp42/isom)
File size : 126 MiB
Duration : 4 min 31 s
Overall bit rate mode : Variable
Overall bit rate : 3 906 kb/s
Encoded date : UTC 2016-10-10 10:50:26
Tagged date : UTC 2016-10-10 10:50:27
Writing application : mp4creator 1.6.1d
Video
ID : 1
Format : AVC
Format/Info : Advanced Video Codec
Format profile : High@L5
Format settings : 1 Ref Frames
Format settings, CABAC : No
Format settings, Reference fra : 1 frame
Codec ID : avc1
Codec ID/Info : Advanced Video Coding
Duration : 4 min 31 s
Bit rate : 3 779 kb/s
Width : 1 920 pixels
Height : 1 088 pixels
Original height : 1 080 pixels
Display aspect ratio : 16:9
Frame rate mode : Constant
Frame rate : 30.000 FPS
Color space : YUV
Chroma subsampling : 4:2:0
Bit depth : 8 bits
Scan type : Progressive
Bits/(Pixel*Frame) : 0.060
Stream size : 122 MiB (97%)
Language : English
Encoded date : UTC 2016-10-10 10:50:26
Tagged date : UTC 2016-10-10 10:50:27
Codec configuration box : avcC
Audio
ID : 2
Format : AAC LC
Format/Info : Advanced Audio Codec Low Complexity
Codec ID : mp4a-40-2
Duration : 4 min 29 s
Source duration : 4 min 29 s
Bit rate mode : Variable
Bit rate : 125 kb/s
Maximum bit rate : 199 kb/s
Channel(s) : 2 channels
Channel layout : L R
Sampling rate : 44.1 kHz
Frame rate : 43.066 FPS (1024 SPF)
Compression mode : Lossy
Stream size : 4.03 MiB (3%)
Source stream size : 4.03 MiB (3%)
Language : English
Encoded date : UTC 2016-10-10 10:50:27
Tagged date : UTC 2016-10-10 10:50:27

Дополнительная информация:

Программное обеспечение: ZBrush 4R7 , KeyShot 5
Файлы примеров: Нет

Содержание:

Данный фундаментальный и всеохватывающий курс по ZBrush 4R7 состоит из 3 частей и позволит вам в полной мере познать все аспекты и возможности этого удивительного и мощного инстумента, который вы можете в дальнейшем использовать для ваших концептов, иллюстраций или производства.
Вторая часть курса, состоящая из 70 видео, длительностью почти 8 часов, предназначена для того, чтобы поднять ваши скилы по ZBrush на новый, более высокий уровень! Мы начнем с изучения и назначения собственных горячих клавиш, настройки под себя интерфеса и меню, чтобы ваше творчество протекало свободно без поисков тех или иных необходимых элементов. После мы займемся дизайном и аксессуарами нашего персонажа, используя разные приемы работы с сеткой и продвинутыми методами создания собственных кистей. И в завершении, в качестве бонуса, вы получите видео по созданию персонажа - рептилии, которую вы можете увидеть на обложке курса.
Скриншоты:
Скачать .torrent

Чтобы скачать торрент-файл

Michael Pavlovich - Intro To ZBrush 4R7 Part 2 (2015)

Вам нужно Авторизоваться на сайте под своим логином. Если у Вы ещё не зарегистрированы, тогда Вам нужно пройти Регистрацию


Показать сообщения:    
Ответить на тему

Скачать Michael Pavlovich - Intro To ZBrush 4R7 Part 2 (2015) торрент бесплатно. Отзывы, слив складчины.

Текущее время: Сегодня 07:20

Часовой пояс: GMT + 4



Вы не можете начинать темы
Вы не можете отвечать на сообщения
Вы не можете редактировать свои сообщения
Вы не можете удалять свои сообщения
Вы не можете голосовать в опросах
Вы не можете прикреплять файлы к сообщениям
Вы не можете скачивать файлы