Michael Pavlovich - Intro To ZBrush 4R7 Part 1 (2015) торрент

Ответить на тему
 
Автор Сообщение

Prescious ®

Michael Pavlovich | Intro To ZBrush 4R7 Part 1 (2015) PCRec - Автор: Michael Pavlovich
Производство: Gumroad
Жанр: Создание видео
Описание:
Майкл Павлович - художник по персонажам, его специализация - 3D концепт арт и продакшн пайплайны.
В 2005 закончил Ринглингский колледж искусств и дизайна, получив степень бакалавра изящных искусств в комптютерной анимации.
Начал свою карьеру в Electronic Arts в качестве художника по окружению, работал над такими проектами, как Madden NFL и NCAA Football, затем занимался анимацией персонажей комиксов DC Universe Online в составе Sony Online Entertainment.
Сейчас Майкл занимается созданием персонажей, оружия, транспортных средств, а также концепт артом для таких топовых видеоигр, как Halo, Call of Duty и DOOM в качестве ведущего художника (Senior Artist) для Certain Affinity.
Эта компания находится в Остине, штат Техас.
Продолжительность: 06:13:00
Качество видео: PCRec
Видео: AVC/H.264, 1920x1080, ~618kbps
Аудио: AAC, 2 ch, 125kbps

MediaInfo:

General
Complete name : K:\[Gumroad] Intro To ZBrush 4R7 Part 1 [RUS]\002 Primitives And Polymesh3D.mp4
Format : MPEG-4
Format profile : Base Media / Version 2
Codec ID : mp42 (mp42/mp41)
File size : 62.0 MiB
Duration : 11 min 34 s
Overall bit rate mode : Variable
Overall bit rate : 748 kb/s
Encoded date : UTC 2016-11-08 16:14:27
Tagged date : UTC 2016-11-08 16:14:28
TIM : 00:00:00:00
TSC : 30
TSZ : 1
Video
ID : 1
Format : AVC
Format/Info : Advanced Video Codec
Format profile : Main@L4.1
Format settings : CABAC / 3 Ref Frames
Format settings, CABAC : Yes
Format settings, Reference fra : 3 frames
Format settings, GOP : M=4, N=30
Codec ID : avc1
Codec ID/Info : Advanced Video Coding
Duration : 11 min 34 s
Bit rate : 619 kb/s
Width : 1 920 pixels
Height : 1 080 pixels
Display aspect ratio : 16:9
Frame rate mode : Constant
Frame rate : 30.000 FPS
Standard : NTSC
Color space : YUV
Chroma subsampling : 4:2:0
Bit depth : 8 bits
Scan type : Progressive
Bits/(Pixel*Frame) : 0.010
Stream size : 51.3 MiB (83%)
Language : English
Encoded date : UTC 2016-11-08 16:14:27
Tagged date : UTC 2016-11-08 16:14:27
Color range : Limited
Color primaries : BT.709
Transfer characteristics : BT.709
Matrix coefficients : BT.709
Codec configuration box : avcC
Audio
ID : 2
Format : AAC LC
Format/Info : Advanced Audio Codec Low Complexity
Codec ID : mp4a-40-2
Duration : 11 min 34 s
Source duration : 11 min 34 s
Bit rate mode : Variable
Bit rate : 126 kb/s
Maximum bit rate : 214 kb/s
Channel(s) : 2 channels
Channel layout : L R
Sampling rate : 44.1 kHz
Frame rate : 43.066 FPS (1024 SPF)
Compression mode : Lossy
Stream size : 10.4 MiB (17%)
Source stream size : 10.4 MiB (17%)
Language : English
Encoded date : UTC 2016-11-08 16:14:27
Tagged date : UTC 2016-11-08 16:14:27

Дополнительная информация:

Программное обеспечение: ZBrush 4R7 , KeyShot
Файлы примеров: Нет

Содержание:

Данный фундаментальный и всеохватывающий курс по ZBrush 4R7 состоит из 3 частей и позволит вам в полной мере познать все аспекты и возможности этого удивительного и мощного инстумента, который вы можете в дальнейшем использовать для ваших концептов, иллюстраций или производства.
Первая часть этого курса, длящаяся 6 часов и состоящая из 46 видео, разработана таким образом, чтобы за очень короткое время, насколько это возможно, дать вам максимально продуктивную информацию по ZBrush 4R7 - от базовой навигации до способности лепить свои собственные концепты и рендерить их с помощью KeyShot.
Скриншоты:
Скачать .torrent

Чтобы скачать торрент-файл

Michael Pavlovich - Intro To ZBrush 4R7 Part 1 (2015)

Вам нужно Авторизоваться на сайте под своим логином. Если у Вы ещё не зарегистрированы, тогда Вам нужно пройти Регистрацию


Показать сообщения:    
Ответить на тему

Скачать Michael Pavlovich - Intro To ZBrush 4R7 Part 1 (2015) торрент бесплатно. Отзывы, слив складчины.

Текущее время: Сегодня 14:30

Часовой пояс: GMT + 4



Вы не можете начинать темы
Вы не можете отвечать на сообщения
Вы не можете редактировать свои сообщения
Вы не можете удалять свои сообщения
Вы не можете голосовать в опросах
Вы не можете прикреплять файлы к сообщениям
Вы не можете скачивать файлы