CGMA, Pete Zoppi - Создание персонажа для фильмов/синематиков / Character Creation for Film/Cinematics (2019) торрент

Ответить на тему
 
Автор Сообщение

Prescious ®

CGMA, Pete Zoppi | Создание персонажа для фильмов/синематиков / Character Creation for Film/Cinematics (2019) PCRec [En] - Автор: Pete Zoppi
Производство: CGMA
Жанр: Создание видео
Описание:
Целью этого курса является освоение процесса создания персонажей для фильмов и игровых синематиков, включая все аспекты композиции и нарратив. Каждую неделю курса мы посвятим отдельному аспекту процесса создания модели персонажа и последовательно создадим полностью законченную модель. Мы начнем с анализа референс материалов и перейдем к базовому скульптингу. На следующем этапе я создам твердотельные элементы, одежду и другие аксессуары необходимые для того чтобы закончить хай поли модель. Далее перейдем к продвинутым техникам раскрашивания и шейдинга поверхности. Таким образом мы проведем проработку цвета кожи, подберем материалы для металлических и других типов элементов. В завершение курса мы обсудим теорию цвета, работу с рендером и пост процессинг.
Для успешного освоения курса у вас должны быть базовые знания Zbrush, Maya или 3ds Max
Продолжительность: 23:40:00
Качество видео: PCRec
Язык озвучки: Английский, Русский (отдельным файлом)
Видео: AVC/H.264, 1280x720, ~349kbps
Аудио: MP3, 2 ch, 126 Kbps

MediaInfo:

Общее
Полное имя : J:\CGMA\CGMA - Character Creation for Film Cinematics RUS\ccfc_week01\Week01-01-blockout-body.mp4
Формат : MPEG-4
Профиль формата : Base Media / Version 2
Идентификатор кодека : mp42 (isom/mp42)
Размер файла : 37,8 Мбайт
Продолжительность : 9 м. 40 с.
Режим общего битрейта : Переменный
Общий поток : 546 Кбит/сек
Дата кодирования : UTC 2016-01-27 12:06:06
Дата пометки : UTC 2016-01-27 12:06:06
Видео
Идентификатор : 1
Формат : AVC
Формат/Информация : Advanced Video Codec
Профиль формата : Main@L3.1
Настройки формата : CABAC / 3 Ref Frames
Параметр CABAC формата : Да
Параметр RefFrames формата : 3 кадра
Параметр GOP формата : M=1, N=75
Идентификатор кодека : avc1
Идентификатор кодека/Информация : Advanced Video Coding
Продолжительность : 9 м. 40 с.
Битрейт : 419 Кбит/сек
Ширина : 1 280 пикселей
Высота : 720 пикселей
Соотношение сторон : 16:9
Режим частоты кадров : Постоянный
Частота кадров : 15,000 кадров/сек
Цветовое пространство : YUV
Субдискретизация насыщенности : 4:2:0
Битовая глубина : 8 бит
Тип развёртки : Прогрессивная
Бит/(Пиксели*Кадры) : 0.030
Размер потока : 29,0 Мбайт (77%)
Язык : English
Дата кодирования : UTC 2016-01-27 12:06:07
Дата пометки : UTC 2016-01-27 12:06:07
Цветовой диапазон : Limited
Codec configuration box : avcC
Аудио
Идентификатор : 2
Формат : AAC LC
Формат/Информация : Advanced Audio Codec Low Complexity
Идентификатор кодека : mp4a-40-2
Продолжительность : 9 м. 40 с.
Вид битрейта : Переменный
Битрейт : 126 Кбит/сек
Максимальный битрейт : 257 Кбит/сек
Каналы : 2 канала
Channel layout : L R
Частота : 44,1 КГц
Частота кадров : 43,066 кадра/сек (1024 SPF)
Метод сжатия : С потерями
Размер потока : 8,69 Мбайт (23%)
Язык : English
Дата кодирования : UTC 2016-01-27 12:06:07
Дата пометки : UTC 2016-01-27 12:06:07

Дополнительная информация:

Неделя 1 – Создание базовой формы модели персонажа
Неделя 2 – Голова персонажа
Неделя 3 – Тело и одежда
Неделя 4 – Создание твердотельных элементов
Неделя 5 – Сведение всех элементов в единую композицию
Неделя 6 – Прорисовка текстур
Неделя 7 – Прорисовка текстур (продолжение)
Неделя 8 – Применение текстур к мешам
Неделя 9 – Риггинг и базовое освещение
Неделя 10 – Финализация проекта
Скриншоты:
Скачать .torrent

Чтобы скачать торрент-файл

CGMA, Pete Zoppi - Создание персонажа для фильмов/синематиков / Character Creation for Film/Cinematics (2019)

Вам нужно Авторизоваться на сайте под своим логином. Если у Вы ещё не зарегистрированы, тогда Вам нужно пройти Регистрацию


Показать сообщения:    
Ответить на тему

Скачать CGMA, Pete Zoppi - Создание персонажа для фильмов/синематиков / Character Creation for Film/Cinematics (2019) торрент бесплатно. Отзывы, слив складчины.

Текущее время: Сегодня 15:38

Часовой пояс: GMT + 4



Вы не можете начинать темы
Вы не можете отвечать на сообщения
Вы не можете редактировать свои сообщения
Вы не можете удалять свои сообщения
Вы не можете голосовать в опросах
Вы не можете прикреплять файлы к сообщениям
Вы не можете скачивать файлы