Grant Warwick - Mastering Lighting Lessons 1-4 (2016) торрент

Ответить на тему
 
Автор Сообщение

Prescious ®

Grant Warwick | Mastering Lighting Lessons 1-4 (2016) PCRec [En, Ru] - Автор: Grant Warwick
Жанр: Создание видео
Описание:
Создание реалистичной картинки один из самых важных аспектов работы CGI художника, но на этом все не заканчивается. Когда реализм уже есть, нужно создать привлекательную и хорошо освещенную картинку с помощью понимания фотографии, цвета и композиции. Это одно из важнейших умений в индустрии. Ну и наконец нужно понимать, что хотят от вас получить люди, занимающейся постобработкой картинки, и как им это дать. И вот здесь на сцену выходит этот курс.

Продолжение описания:

Используя свой опыт и знания в сфере освещения, я дам вам знания в сфере цифрового освещения. Такие умения есть у малого количества CGI художников, так как редко кто из CGIиз них имеет опыт работы с фотографами. Мне повезло работать с известными фотографами и ретушировщиками. Я попытался взять как можно больше их знаний и применить в своей работе.
Так же, этот курс делался с помощью некоторых известных художников, так что в файлах проектов можно найти профессиональные рабочие сцены и вы сможете использовать их в своих проектах.
Освещение очень нужная и важная тема, и я надеюсь, что этот курс станет хорошим дополнением к предыдущему MasteringV-Ray.
Продолжительность: 08:45:00
Качество видео: PCRec
Язык озвучки: Английский, Русский
Видео: AVC/H.264, 1920x1080, ~655 kbps
Аудио: AAC, 2 ch, 151 kbps
Аудио 2: MP3, 2 ch, 184 kbps (отдельным файлом)

MediaInfo:

General
Complete name : K:\[Grant Warwick] Mastering Lighting Lessons 1-4 [ENG-RUS]\Mastering_Lighting_Lesson_001.mp4
Format : MPEG-4
Format profile : Base Media / Version 2
Codec ID : mp42 (mp42/isom/avc1)
File size : 231 MiB
Duration : 39 min 43 s
Overall bit rate mode : Variable
Overall bit rate : 812 kb/s
Encoded date : UTC 2015-05-08 13:07:43
Tagged date : UTC 2015-05-08 13:12:29
Writing application : HandBrake 0.9.9 2013052900
Video
ID : 1
Format : AVC
Format/Info : Advanced Video Codec
Format profile : Main@L4
Format settings : CABAC / 4 Ref Frames
Format settings, CABAC : Yes
Format settings, Reference fra : 4 frames
Codec ID : avc1
Codec ID/Info : Advanced Video Coding
Duration : 39 min 43 s
Bit rate : 656 kb/s
Width : 1 920 pixels
Height : 1 080 pixels
Display aspect ratio : 16:9
Frame rate mode : Variable
Frame rate : 30.000 FPS
Minimum frame rate : 30.000 FPS
Maximum frame rate : 30.030 FPS
Color space : YUV
Chroma subsampling : 4:2:0
Bit depth : 8 bits
Scan type : Progressive
Bits/(Pixel*Frame) : 0.011
Stream size : 186 MiB (81%)
Writing library : x264 core 130 r2273 b3065e6
Encoding settings : cabac=1 / ref=1 / deblock=1:0:0 / analyse=0x1:0x111 / me=hex / subme=2 / psy=1 / psy_rd=1.00:0.00 / mixed_ref=0 / me_range=16 / chroma_me=1 / trellis=0 / 8x8dct=0 / cqm=0 / deadzone=21,11 / fast_pskip=1 / chroma_qp_offset=0 / threads=18 / lookahead_threads=6 / sliced_threads=0 / nr=0 / decimate=1 / interlaced=0 / bluray_compat=0 / constrained_intra=0 / bframes=3 / b_pyramid=2 / b_adapt=1 / b_bias=0 / direct=1 / weightb=1 / open_gop=0 / weightp=1 / keyint=300 / keyint_min=30 / scenecut=40 / intra_refresh=0 / rc_lookahead=10 / rc=crf / mbtree=1 / crf=20.0 / qcomp=0.60 / qpmin=0 / qpmax=69 / qpstep=4 / vbv_maxrate=20000 / vbv_bufsize=25000 / crf_max=0.0 / nal_hrd=none / ip_ratio=1.40 / aq=1:1.00
Encoded date : UTC 2015-05-08 13:07:43
Tagged date : UTC 2015-05-08 13:12:29
Color range : Limited
Color primaries : BT.709
Transfer characteristics : BT.709
Matrix coefficients : BT.709
Codec configuration box : avcC
Audio
ID : 2
Format : AAC LC
Format/Info : Advanced Audio Codec Low Complexity
Codec ID : mp4a-40-2
Duration : 39 min 43 s
Bit rate mode : Variable
Bit rate : 152 kb/s
Maximum bit rate : 313 kb/s
Channel(s) : 2 channels
Channel layout : L R
Sampling rate : 44.1 kHz
Frame rate : 43.066 FPS (1024 SPF)
Compression mode : Lossy
Stream size : 43.1 MiB (19%)
Title : Stereo
Language : English
Encoded date : UTC 2015-05-08 13:07:43
Tagged date : UTC 2015-05-08 13:12:28

Дополнительная информация:

Программное обеспечение: 3DS Max, V-Ray, Octane, HDRI Light Studio, PhotoShop
Файлы примеров: Есть
Скриншоты:
Скачать .torrent

Чтобы скачать торрент-файл

Grant Warwick - Mastering Lighting Lessons 1-4 (2016)

Вам нужно Авторизоваться на сайте под своим логином. Если у Вы ещё не зарегистрированы, тогда Вам нужно пройти Регистрацию


Показать сообщения:    
Ответить на тему

Скачать Grant Warwick - Mastering Lighting Lessons 1-4 (2016) торрент бесплатно. Отзывы, слив складчины.

Текущее время: Сегодня 11:10

Часовой пояс: GMT + 4



Вы не можете начинать темы
Вы не можете отвечать на сообщения
Вы не можете редактировать свои сообщения
Вы не можете удалять свои сообщения
Вы не можете голосовать в опросах
Вы не можете прикреплять файлы к сообщениям
Вы не можете скачивать файлы