Skillbox, Дмитрий Сидорин и др. - Управление репутацией бренда в сети (2020) торрент

Ответить на тему
 
Автор Сообщение

Prescious ®

Skillbox, Дмитрий Сидорин и др. | Управление репутацией бренда в сети (2020) PCRec - Автор: Дмитрий Сидорин и др.
Производство: Skillbox
Жанр: Маркетинг, PR
Описание:
Вы узнаете, как создавать положительный имидж компании с помощью digital-инструментов: поисковой оптимизации, отзывов и соцсетей. Научитесь отслеживать упоминания о бренде или персоне в сети, повысите лояльность аудитории и увеличите продажи.
Продолжительность: 23:58:37
Качество видео: PCRec
Видео: AVC/H.264, 1076x618, ~2 955 Кбит/сек
Аудио: AAC, 2 ch, 256 Кбит/сек

MediaInfo:

Общее
Полное имя : X:\Sliff\[SkillBox] Управление репутацией бренда в сети (2020)\3. Репутация бренда в поиске\3. Острова контента.mp4
Формат : MPEG-4
Профиль формата : Base Media
Идентификатор кодека : isom (isom/iso2/avc1/mp41)
Размер файла : 794 Мбайт
Продолжительность : 34 м. 28 с.
Режим общего битрейта : Переменный
Общий поток : 3 222 Кбит/сек
Программа кодирования : Lavf56.36.100
Видео
Идентификатор : 2
Формат : AVC
Формат/Информация : Advanced Video Codec
Профиль формата : Baseline@L3.1
Настройки формата : 1 Ref Frames
Параметр CABAC формата : Нет
Параметр RefFrames формата : 1 кадр
Параметр GOP формата : M=1, N=25
Идентификатор кодека : avc1
Идентификатор кодека/Информация : Advanced Video Coding
Продолжительность : 34 м. 28 с.
Вид битрейта : Переменный
Битрейт : 2 955 Кбит/сек
Максимальный битрейт : 6 186 Кбит/сек
Ширина : 1 076 пикселей
Высота : 618 пикселей
Соотношение сторон : 16:9
Режим частоты кадров : Переменный
Частота кадров : 29,928 кадров/сек
Минимальная частота кадров : 9,009 кадров/сек
Максимальная частота кадров : 31,283 кадров/сек
Частота кадров в оригинале : 30,000 кадров/сек
Цветовое пространство : YUV
Субдискретизация насыщенности : 4:2:0
Битовая глубина : 8 бит
Тип развёртки : Прогрессивная
Бит/(Пиксели*Кадры) : 0.149
Размер потока : 729 Мбайт (92%)
Codec configuration box : avcC
Аудио
Идентификатор : 1
Формат : AAC LC
Формат/Информация : Advanced Audio Codec Low Complexity
Идентификатор кодека : mp4a-40-2
Продолжительность : 34 м. 28 с.
Вид битрейта : Постоянный
Битрейт : 256 Кбит/сек
Каналы : 2 канала
Channel layout : L R
Частота : 48,0 КГц
Частота кадров : 46,875 кадров/сек (1024 SPF)
Метод сжатия : С потерями
Размер потока : 63,1 Мбайт (8%)
Default : Да
Alternate group : 1
Скриншоты:
Скачать .torrent

Чтобы скачать торрент-файл

Skillbox, Дмитрий Сидорин и др. - Управление репутацией бренда в сети (2020)

Вам нужно Авторизоваться на сайте под своим логином. Если у Вы ещё не зарегистрированы, тогда Вам нужно пройти Регистрацию


Показать сообщения:    
Ответить на тему

Скачать Skillbox, Дмитрий Сидорин и др. - Управление репутацией бренда в сети (2020) торрент бесплатно. Отзывы, слив складчины.

Текущее время: Сегодня 15:53

Часовой пояс: GMT + 4



Вы не можете начинать темы
Вы не можете отвечать на сообщения
Вы не можете редактировать свои сообщения
Вы не можете удалять свои сообщения
Вы не можете голосовать в опросах
Вы не можете прикреплять файлы к сообщениям
Вы не можете скачивать файлы