Chad Morgan - Animation Pipeline in Unreal Engine 4 1-4 (2017) торрент

Ответить на тему
 
Автор Сообщение

Prescious ®

Chad Morgan | Animation Pipeline in Unreal Engine 4 1-4 (2017) PCRec [En, Ru] - Автор: Chad Morgan
Производство: 3DMotive
Жанр: Создание видео
Описание:
В этом курсе Чад Могран даст полный обзор систем анимации в Unreal Engine 4. Начав с экспорта нашего персонажа из Maya в формате FBX, мы импортируем его в UE4 таким образом, чтобы мы могли использовать один и тот же блупринт анимации для разных персонажей. Затем мы перейдем к тому, как импортировать анимацию и настраивать такие вещи, как добавочные или аддитивные анимации и навигационные блендспейсы.

Продолжение описания:

Мы рассмотрим основы работы с блупринтами в Unreal Engine для настройки нашего персонажа, а затем - и нашего блупринта анимации. Мы рассмотрим, как заставить нашего персонажа реагировать на команды ввода игрока (на примере клавиатуры и геймпада), как подключить персонажа к блупринту анимации, что заставит его бегать по нашему игровому миру. Разбирая блупринты анимации, мы обсудим такие вещи, как применение аддитивных анимаций и настройка стейт-машин. Мы добавим дополнительные функции, такие как IK систему, систему вращения головы и другие процедурные системы анимации.
Продолжительность: 05:30:00
Качество видео: PCRec
Язык озвучки: Английский, Русский
Видео: AVC/H.264, 1280x720, ~2376 kbps
Аудио: AAC, 2 ch, 93 kbps
Аудио 2: MP3, 2 ch, 128 kbps (отдельным файлом)

MediaInfo:

General
Complete name : K:\[3DMotive] Animation Pipeline in Unreal Engine 4 [ENG-RUS]\3DMotive - Animation Pipeline in UE4 Volume 1\02-Preparing Character for Export.mp4
Format : MPEG-4
Format profile : Base Media / Version 2
Codec ID : mp42 (isom/mp42)
File size : 209 MiB
Duration : 11 min 48 s
Overall bit rate mode : Variable
Overall bit rate : 2 472 kb/s
Encoded date : UTC 2017-03-19 22:32:09
Tagged date : UTC 2017-03-19 22:32:09
Video
ID : 1
Format : AVC
Format/Info : Advanced Video Codec
Format profile : Baseline@L3.1
Format settings : 3 Ref Frames
Format settings, CABAC : No
Format settings, Reference fra : 3 frames
Codec ID : avc1
Codec ID/Info : Advanced Video Coding
Duration : 11 min 48 s
Source duration : 11 min 48 s
Bit rate : 2 376 kb/s
Width : 1 280 pixels
Height : 720 pixels
Display aspect ratio : 16:9
Frame rate mode : Variable
Frame rate : 30.000 FPS
Minimum frame rate : 30.000 FPS
Maximum frame rate : 30.030 FPS
Standard : NTSC
Color space : YUV
Chroma subsampling : 4:2:0
Bit depth : 8 bits
Scan type : Progressive
Bits/(Pixel*Frame) : 0.086
Stream size : 201 MiB (96%)
Source stream size : 201 MiB (96%)
Language : English
Encoded date : UTC 2017-03-19 22:32:09
Tagged date : UTC 2017-03-19 22:32:09
Color range : Limited
mdhd_Duration : 708567
Codec configuration box : avcC
Audio
ID : 2
Format : AAC LC
Format/Info : Advanced Audio Codec Low Complexity
Codec ID : mp4a-40-2
Duration : 11 min 48 s
Bit rate mode : Variable
Bit rate : 93.6 kb/s
Maximum bit rate : 126 kb/s
Channel(s) : 2 channels
Channel layout : L R
Sampling rate : 44.1 kHz
Frame rate : 43.066 FPS (1024 SPF)
Compression mode : Lossy
Stream size : 7.91 MiB (4%)
Language : English
Encoded date : UTC 2017-03-19 22:32:09
Tagged date : UTC 2017-03-19 22:32:09

Дополнительная информация:

Программное обеспечение: Maya, Unreal Engine 4
Файлы примеров: Нет
Скриншоты:
Скачать .torrent

Чтобы скачать торрент-файл

Chad Morgan - Animation Pipeline in Unreal Engine 4 1-4 (2017)

Вам нужно Авторизоваться на сайте под своим логином. Если у Вы ещё не зарегистрированы, тогда Вам нужно пройти Регистрацию


Показать сообщения:    
Ответить на тему

Скачать Chad Morgan - Animation Pipeline in Unreal Engine 4 1-4 (2017) торрент бесплатно. Отзывы, слив складчины.

Текущее время: Сегодня 19:45

Часовой пояс: GMT + 4



Вы не можете начинать темы
Вы не можете отвечать на сообщения
Вы не можете редактировать свои сообщения
Вы не можете удалять свои сообщения
Вы не можете голосовать в опросах
Вы не можете прикреплять файлы к сообщениям
Вы не можете скачивать файлы