Ryan Ribot - Stylized Creature Texturing Volume 3 (2015) торрент

Ответить на тему
 
Автор Сообщение

Prescious ®

Ryan Ribot | Stylized Creature Texturing Volume 3 (2015) PCRec [En, Ru] - Автор: Ryan Ribot
Производство: 3DMotive
Жанр: Создание видео
Описание:
В этом курсе мы изучим необходимые навыки, чтобы подготовить и разрисовать трехмерное существо для игрового производства. Начиная с процесса запекания мы рассмотрим все необходимые навыки, которые необходимы художнику для текстурирования персонажа. После того, как мы разберемся с технической частью начнется самое веселое: рисование. Мы изучим техники рисования в очень стилизированой цветовой схеме, ориентируясь на балансе ценности и цвета, чтобы создать хорошо выглядящее существо. Мы охватим множество материалов от кожи до металла, и продемонстрируем методы, как отобразить важнейшие свойства материала. Нашим финальным результатом будет законченная работа для портфолио, которая покажет ваше художественное мастерство.
Продолжительность: 01:15:00
Качество видео: PCRec
Язык озвучки: Английский, Русский
Видео: AVC/H.264, 1280x720, ~6150kbps
Аудио: AAC, 2 ch, 93kbps
Аудио 2: MP3, 2 ch, 320kbps (отдельным файлом)

MediaInfo:

General
Complete name : K:\[3DMotive] Stylized Creature Texturing Volume 3 [ENG-RUS]\01-Introduction.mp4
Format : MPEG-4
Format profile : Base Media
Codec ID : isom (isom/iso2/avc1/mp41)
File size : 34.3 MiB
Duration : 45 s 999 ms
Overall bit rate : 6 249 kb/s
Movie name : 1237
Writing application : Lavf54.29.104
Video
ID : 1
Format : AVC
Format/Info : Advanced Video Codec
Format profile : High@L3.1
Format settings : CABAC / 4 Ref Frames
Format settings, CABAC : Yes
Format settings, Reference fra : 4 frames
Codec ID : avc1
Codec ID/Info : Advanced Video Coding
Duration : 45 s 967 ms
Bit rate : 6 000 kb/s
Width : 1 280 pixels
Height : 720 pixels
Display aspect ratio : 16:9
Frame rate mode : Constant
Frame rate : 30.000 FPS
Color space : YUV
Chroma subsampling : 4:2:0
Bit depth : 8 bits
Scan type : Progressive
Bits/(Pixel*Frame) : 0.217
Stream size : 33.7 MiB (98%)
Writing library : x264 core 129
Encoding settings : cabac=1 / ref=3 / deblock=1:0:0 / analyse=0x3:0x113 / me=hex / subme=7 / psy=1 / psy_rd=1.00:0.00 / mixed_ref=1 / me_range=16 / chroma_me=1 / trellis=1 / 8x8dct=1 / cqm=0 / deadzone=21,11 / fast_pskip=1 / chroma_qp_offset=-2 / threads=8 / lookahead_threads=1 / sliced_threads=0 / nr=0 / decimate=1 / interlaced=0 / bluray_compat=0 / constrained_intra=0 / bframes=3 / b_pyramid=2 / b_adapt=1 / b_bias=0 / direct=1 / weightb=1 / open_gop=0 / weightp=2 / keyint=250 / keyint_min=25 / scenecut=40 / intra_refresh=0 / rc_lookahead=40 / rc=abr / mbtree=1 / bitrate=6000 / ratetol=1.0 / qcomp=0.60 / qpmin=0 / qpmax=69 / qpstep=4 / ip_ratio=1.40 / aq=1:1.00
Language : English
Codec configuration box : avcC
Audio
ID : 2
Format : AAC LC
Format/Info : Advanced Audio Codec Low Complexity
Codec ID : mp4a-40-2
Duration : 45 s 999 ms
Bit rate mode : Constant
Bit rate : 93.6 kb/s
Channel(s) : 2 channels
Channel layout : L R
Sampling rate : 44.1 kHz
Frame rate : 43.066 FPS (1024 SPF)
Compression mode : Lossy
Stream size : 525 KiB (1%)
Language : English
Default : Yes
Alternate group : 1

Дополнительная информация:

Программное обеспечение: Maya, ZBrush, 3D-Coat
Файлы примеров: Есть

В этой части:

Chapter 1 - Intro - 00:45
Chapter 2 - Painting the Arm Wraps - 09:13
Chapter 3 - Painting the Hands - 11:03
Chapter 4 - Painting the Metal Jaw - 08:45
Chapter 5 - Painting the Belt - 06:08
Chapter 6 - Painting the Tail - 09:59
Chapter 7 - Painting the Wings - 10:41
Chapter 8 - Final Adjustments - 03:40
Chapter 9 - Portfolio Shot - 08:47
Скриншоты:
Скачать .torrent

Чтобы скачать торрент-файл

Ryan Ribot - Stylized Creature Texturing Volume 3 (2015)

Вам нужно Авторизоваться на сайте под своим логином. Если у Вы ещё не зарегистрированы, тогда Вам нужно пройти Регистрацию


Xanterddd

Здравствуйте! Раздайте данную часть, пожалуйста!
Показать сообщения:    
Ответить на тему

Скачать Ryan Ribot - Stylized Creature Texturing Volume 3 (2015) торрент бесплатно. Отзывы, слив складчины.

Текущее время: Сегодня 19:03

Часовой пояс: GMT + 4



Вы не можете начинать темы
Вы не можете отвечать на сообщения
Вы не можете редактировать свои сообщения
Вы не можете удалять свои сообщения
Вы не можете голосовать в опросах
Вы не можете прикреплять файлы к сообщениям
Вы не можете скачивать файлы