Ryan Ribot - Stylized Creature Texturing (2015) торрент

Ответить на тему
 
Автор Сообщение

Prescious ®

Ryan Ribot | Stylized Creature Texturing (2015) PCRec [En, Ru] - Автор: Ryan Ribot
Производство: 3DMotive
Жанр: Создание видео
Описание:
В этом курсе мы изучим необходимые навыки, чтобы подготовить и разрисовать трехмерное существо для игрового производства. Начиная с процесса запекания мы рассмотрим все необходимые навыки, которые необходимы художнику для текстурирования персонажа. После того, как мы разберемся с технической частью начнется самое веселое: рисование. Мы изучим техники рисования в очень стилизированой цветовой схеме, ориентируясь на балансе ценности и цвета, чтобы создать хорошо выглядящее существо. Мы охватим множество материалов от кожи до металла, и продемонстрируем методы, как отобразить важнейшие свойства материала. Нашим финальным результатом будет законченная работа для портфолио, которая покажет ваше художественное мастерство.
Продолжительность: 01:22:00
Качество видео: PCRec
Язык озвучки: Английский, Русский
Видео: AVC/H.264, 1280x720, ~3161kbps
Аудио: AAC, 2 ch, 93kbps
Аудио 2: MP3, 2 ch, 320kbps (отдельным файлом)

MediaInfo:

General
Complete name : K:\[3DMotive] Stylized Creature Texturing Volume 1 [ENG-RUS]\01-Introduction.mp4
Format : MPEG-4
Format profile : Base Media / Version 2
Codec ID : mp42 (isom/mp42)
File size : 13.9 MiB
Duration : 35 s 944 ms
Overall bit rate mode : Variable
Overall bit rate : 3 255 kb/s
Movie name : 1235
Encoded date : UTC 2015-08-09 14:57:17
Tagged date : UTC 2015-08-09 14:57:17
Video
ID : 1
Format : AVC
Format/Info : Advanced Video Codec
Format profile : Baseline@L3.1
Format settings : 3 Ref Frames
Format settings, CABAC : No
Format settings, Reference fra : 3 frames
Codec ID : avc1
Codec ID/Info : Advanced Video Coding
Duration : 35 s 900 ms
Bit rate : 3 161 kb/s
Width : 1 280 pixels
Height : 720 pixels
Display aspect ratio : 16:9
Frame rate mode : Constant
Frame rate : 30.000 FPS
Standard : NTSC
Color space : YUV
Chroma subsampling : 4:2:0
Bit depth : 8 bits
Scan type : Progressive
Bits/(Pixel*Frame) : 0.114
Stream size : 13.5 MiB (97%)
Language : English
Encoded date : UTC 2015-08-09 14:57:17
Tagged date : UTC 2015-08-09 14:57:17
Color range : Limited
Codec configuration box : avcC
Audio
ID : 2
Format : AAC LC
Format/Info : Advanced Audio Codec Low Complexity
Codec ID : mp4a-40-2
Duration : 35 s 944 ms
Source duration : 35 s 944 ms
Bit rate mode : Variable
Bit rate : 93.5 kb/s
Maximum bit rate : 120 kb/s
Channel(s) : 2 channels
Channel layout : L R
Sampling rate : 44.1 kHz
Frame rate : 43.066 FPS (1024 SPF)
Compression mode : Lossy
Stream size : 410 KiB (3%)
Source stream size : 410 KiB (3%)
Language : English
Encoded date : UTC 2015-08-09 14:57:17
Tagged date : UTC 2015-08-09 14:57:17
mdhd_Duration : 35944

Дополнительная информация:

Программное обеспечение: Maya, ZBrush, 3D-Coat
Файлы примеров: Есть

В этой части:

Часть 1 - Введение - 00:35
Часть 2 - Настройки для запекания текстур - 10:40
Часть 3 - Запекание текстур 01 - 12:51
Часть 4 - Запекание текстур 02 - 07:48
Часть 5 - Обзор 3D Coat - 10:14
Часть 6 - Наносим базовое покрытие - 16:48
Часть 7 - Разбиваем модель на более мелкие участки - 13:58
Часть 8 - Начинаем разукрашивать - 09:53
Скриншоты:
Скачать .torrent

Чтобы скачать торрент-файл

Ryan Ribot - Stylized Creature Texturing (2015)

Вам нужно Авторизоваться на сайте под своим логином. Если у Вы ещё не зарегистрированы, тогда Вам нужно пройти Регистрацию


Показать сообщения:    
Ответить на тему

Скачать Ryan Ribot - Stylized Creature Texturing (2015) торрент бесплатно. Отзывы, слив складчины.

Текущее время: Сегодня 14:18

Часовой пояс: GMT + 4



Вы не можете начинать темы
Вы не можете отвечать на сообщения
Вы не можете редактировать свои сообщения
Вы не можете удалять свои сообщения
Вы не можете голосовать в опросах
Вы не можете прикреплять файлы к сообщениям
Вы не можете скачивать файлы