Eran Dinur - SPT201 SpeedTree Techniques for VFX (2018) торрент

Ответить на тему
 
Автор Сообщение

Prescious ®

Eran Dinur | SPT201 SpeedTree Techniques for VFX (2018) PCRec [En, Ru] - Автор: Eran Dinur
Производство: FXPHD
Жанр: Создание видео
Описание:
За последние несколько лет «SpeedTree» стала неотъемлемой частью пайплайна большинства крупных VFX-студий, и овладение им стало необходимым навыком для художников по окружающей среде, Мэт-пэйнт-художников и специалистов по компьютерной графике. Релиз 8й версии знаменует собой полную эволюцию «SpeedTree Cinema» как программного обеспечения для создания растений, специально предназначенного для индустрии VFX.

Продолжение описания:

Этот всеобъемлющий курс даст вам знания и навыки, необходимые для моделирования и анимации детализированных, высококачественных деревьев и растений для создания визуальных эффектов. Создав несколько разных типов деревьев, студенты познакомятся с такими важными областями программы, как режимы генерации, кривые, меши листьев, а также анимация ветра и роста. Особое внимание будет уделено новым функциям, таким как сезонные изменения, управление формой, освещение, мульти-пасс рендеринг и PBR-материалы.
Продолжительность: 04:17:00
Качество видео: PCRec
Язык озвучки: Английский, Русский
Видео: AVC/H.264, 1920x1080, ~2639kbps
Аудио: AAC, 2 ch, 153kbps
Аудио 2: MP3, 1 ch, 192kbps (отдельным файлом)

MediaInfo:

General
Complete name : K:\[FXPHD] SPT201 SpeedTree Techniques for VFX [ENG-RUS]\spt201-class01.mp4
Format : MPEG-4
Format profile : Base Media / Version 2
Codec ID : mp42 (isom/iso2/avc1/mp41)
File size : 447 MiB
Duration : 22 min 18 s
Overall bit rate mode : Variable
Overall bit rate : 2 799 kb/s
Encoded date : UTC 2018-01-24 23:53:37
Tagged date : UTC 2018-01-24 23:53:37
Writing application : HandBrake 0.10.5 2016021100
Video
ID : 1
Format : AVC
Format/Info : Advanced Video Codec
Format profile : Main@L3.1
Format settings : CABAC / 4 Ref Frames
Format settings, CABAC : Yes
Format settings, Reference fra : 4 frames
Codec ID : avc1
Codec ID/Info : Advanced Video Coding
Duration : 22 min 18 s
Bit rate : 2 639 kb/s
Width : 1 920 pixels
Height : 1 080 pixels
Display aspect ratio : 16:9
Frame rate mode : Constant
Frame rate : 30.000 FPS
Color space : YUV
Chroma subsampling : 4:2:0
Bit depth : 8 bits
Scan type : Progressive
Bits/(Pixel*Frame) : 0.042
Stream size : 421 MiB (94%)
Writing library : x264 core 142 r2479 dd79a61
Encoding settings : cabac=1 / ref=3 / deblock=1:0:0 / analyse=0x1:0x111 / me=hex / subme=7 / psy=1 / psy_rd=1.00:0.00 / mixed_ref=1 / me_range=16 / chroma_me=1 / trellis=1 / 8x8dct=0 / cqm=0 / deadzone=21,11 / fast_pskip=1 / chroma_qp_offset=-2 / threads=12 / lookahead_threads=2 / sliced_threads=0 / nr=0 / decimate=1 / interlaced=0 / bluray_compat=0 / constrained_intra=0 / bframes=3 / b_pyramid=2 / b_adapt=1 / b_bias=0 / direct=1 / weightb=1 / open_gop=0 / weightp=2 / keyint=300 / keyint_min=30 / scenecut=40 / intra_refresh=0 / rc_lookahead=40 / rc=crf / mbtree=1 / crf=16.0 / qcomp=0.60 / qpmin=0 / qpmax=69 / qpstep=4 / vbv_maxrate=14000 / vbv_bufsize=14000 / crf_max=0.0 / nal_hrd=none / filler=0 / ip_ratio=1.40 / aq=1:1.00
Encoded date : UTC 2018-01-24 23:53:37
Tagged date : UTC 2018-01-24 23:53:37
Color range : Limited
Color primaries : BT.709
Transfer characteristics : BT.709
Matrix coefficients : BT.709
Codec configuration box : avcC
Audio
ID : 2
Format : AAC LC
Format/Info : Advanced Audio Codec Low Complexity
Codec ID : mp4a-40-2
Duration : 22 min 18 s
Bit rate mode : Variable
Bit rate : 154 kb/s
Channel(s) : 2 channels
Channel layout : L R
Sampling rate : 48.0 kHz
Frame rate : 46.875 FPS (1024 SPF)
Compression mode : Lossy
Stream size : 24.5 MiB (5%)
Title : Stereo / Stereo
Language : English
Default : Yes
Alternate group : 1
Encoded date : UTC 2018-01-24 23:53:37
Tagged date : UTC 2018-01-24 23:53:37

Дополнительная информация:

Программное обеспечение: SpeedTree v8
Файлы примеров: Нет

Об авторе:

Эран Динур (Eran Dinur) – руководитель по Визуальным эффектам удостоенный наград Эмми и VES, а также автор популярной книги «Руководство по визуальным эффектам». Он возглавлял команду «Brainstorm Digital» в более чем 35 фильмах и сериалах, включая: «Волк с Уолл-стрит», «Подпольная Империя», «Величайший шоумен», «Колесо чудес», «Затерянный город Z», «Мотылек», «Недруги», «Три девятки», «Светская жизнь» и многое другое. До «Brainstorm Digital» Эран был старшим композитором в «Framestore NY» и «ILM Singapore», где работал над такими фильмами, как: «Терминатор: Да придёт спаситель», «Суррогаты», «Трансформеры», «Звездный путь», «Железный Человек» и «Индиана Джонс и Королевство хрустального черепа».
Скриншоты:
Скачать .torrent

Чтобы скачать торрент-файл

Eran Dinur - SPT201 SpeedTree Techniques for VFX (2018)

Вам нужно Авторизоваться на сайте под своим логином. Если у Вы ещё не зарегистрированы, тогда Вам нужно пройти Регистрацию


Показать сообщения:    
Ответить на тему

Скачать Eran Dinur - SPT201 SpeedTree Techniques for VFX (2018) торрент бесплатно. Отзывы, слив складчины.

Текущее время: Сегодня 19:33

Часовой пояс: GMT + 4



Вы не можете начинать темы
Вы не можете отвечать на сообщения
Вы не можете редактировать свои сообщения
Вы не можете удалять свои сообщения
Вы не можете голосовать в опросах
Вы не можете прикреплять файлы к сообщениям
Вы не можете скачивать файлы