Eran Dinur - PNT205 3D Plants and Digital Environments (2013) торрент

Ответить на тему
 
Автор Сообщение

Prescious ®

Eran Dinur | PNT205 3D Plants and Digital Environments (2013) PCRec [En, Ru] - Автор: Eran Dinur
Производство: FXPHD
Жанр: Создание видео
Описание:
Высоко детализированные и анимированные 3D деревья и растения могут иметь огромное визуальное воздействие в цифровом окружение и матт-пэинтинге, как например было в фильме Аватар. Тем не менее, сложность моделей деревьев и многих видов растений делает задачу их создания крайне трудной и требует перехода от традиционных методов моделирования к уникальным процедурным методам.

Продолжение описания:

Согласно обладателю премий Эмми и VES Еран Динуру, этот курс научит процессу создания и интеграции 3D растений, от моделирования и текстурирования до освещения и композитинга.
Работа в SpeedTree, ведущей программе по созданию растений, мы начнем разработку с разбора концепта дизайна растений и узлового редактора и дойдем до продвинутых процедурных методик. Мы покроем такие темы как меши листьев и веток, скульптинг в реальном времени, текстурирование, учет количества полигонов и ЛОДов, анимации ветра и физическое взаимодействие растений.
После того как модель и основная анимация будет готова, мы пойдем дальше. Используя SpeedTreeсовместно с Maya, Vue и Nukeмы создадим полный кадр, который позволит нам включить множество наших собственно созданных деревьев и растений в реалистичной цифровой среде. Мы разберем способы освещения, материалы, композитинг или матт-пэинтинг, для того чтобы избежать «CG-вида» и достичь фотореализма.
Еран является VFX руководителем в Brainstorm Digital. Он обладатель премии Эмми ("Выдающиеся визуальные эффекты») и двух VES наград за свою работу на HBO над Подпольной империей. До работы в Brainstorm Digital, он был старшим композитором в FramestoreНью-Йорк и ILMСингапур. Список фильмов и сериалов над которыми он работал: Жутко громко и запредельно близко, Люди построившие Америку, Подпольная Империя, Битва титанов, Солт, Трансформеры, Суррогаты, Терминатор, StarTrek, Железный человек и Индиана Джонс тайна хрустального черепа. Сейчас он руководит командой в Brainstormпо созданию Волк с Уолл-Стрит и Копы в юбках.
Продолжительность: 05:58:00
Качество видео: PCRec
Язык озвучки: Английский, Русский
Видео: AVC/H.264, 1440x900, ~1614kbps
Аудио: AAC, 1 ch, 96kbps
Аудио 2: MP3, 2 ch, 128kbps (отдельным файлом)

MediaInfo:

General
Complete name : K:\[FXPHD] PNT205 3D Plants and Digital Environments [ENG-RUS]\pnt205-class01.mp4
Format : MPEG-4
Format profile : Base Media / Version 2
Codec ID : mp42 (mp42/mp41)
File size : 462 MiB
Duration : 37 min 39 s
Overall bit rate : 1 716 kb/s
Encoded date : UTC 2013-01-07 23:50:27
Tagged date : UTC 2013-01-07 23:50:45
Video
ID : 2
Format : AVC
Format/Info : Advanced Video Codec
Format profile : Main@L4
Format settings : 2 Ref Frames
Format settings, CABAC : No
Format settings, Reference fra : 2 frames
Codec ID : avc1
Codec ID/Info : Advanced Video Coding
Duration : 37 min 39 s
Bit rate : 1 615 kb/s
Width : 1 440 pixels
Height : 900 pixels
Display aspect ratio : 16:10
Frame rate mode : Constant
Frame rate : 23.976 (23976/1000) FPS
Color space : YUV
Chroma subsampling : 4:2:0
Bit depth : 8 bits
Scan type : Progressive
Bits/(Pixel*Frame) : 0.052
Stream size : 435 MiB (94%)
Language : English
Encoded date : UTC 2013-01-07 23:50:25
Tagged date : UTC 2013-01-07 23:50:45
Color range : Limited
Color primaries : BT.709
Transfer characteristics : BT.709
Matrix coefficients : BT.709
Codec configuration box : avcC
Audio
ID : 1
Format : AAC LC
Format/Info : Advanced Audio Codec Low Complexity
Codec ID : mp4a-40-2
Duration : 37 min 39 s
Source duration : 37 min 39 s
Bit rate mode : Constant
Bit rate : 96.0 kb/s
Channel(s) : 1 channel
Channel layout : C
Sampling rate : 44.1 kHz
Frame rate : 43.066 FPS (1024 SPF)
Compression mode : Lossy
Stream size : 25.9 MiB (6%)
Source stream size : 25.9 MiB (6%)
Language : English
Encoded date : UTC 2013-01-07 23:49:46
Tagged date : UTC 2013-01-07 23:50:45

Дополнительная информация:

Программное обеспечение: SpeedTree, The Plant Factory, Maya, Vue, Nuke
Файлы примеров: Есть
Скриншоты:
Скачать .torrent

Чтобы скачать торрент-файл

Eran Dinur - PNT205 3D Plants and Digital Environments (2013)

Вам нужно Авторизоваться на сайте под своим логином. Если у Вы ещё не зарегистрированы, тогда Вам нужно пройти Регистрацию


Показать сообщения:    
Ответить на тему

Скачать Eran Dinur - PNT205 3D Plants and Digital Environments (2013) торрент бесплатно. Отзывы, слив складчины.

Текущее время: Сегодня 14:32

Часовой пояс: GMT + 4



Вы не можете начинать темы
Вы не можете отвечать на сообщения
Вы не можете редактировать свои сообщения
Вы не можете удалять свои сообщения
Вы не можете голосовать в опросах
Вы не можете прикреплять файлы к сообщениям
Вы не можете скачивать файлы