Александр Заморин и Софи Лебедева - Безупречная композиция. Полный курс! (2015) торрент

Ответить на тему
 
Автор Сообщение

Prescious ®

Александр Заморин и Софи Лебедева | Безупречная композиция. Полный курс! (2015) PCRec - Автор: Александр Заморин и Софи Лебедева
Жанр: Фотография
Описание:
Если вы тоже чувствуете, что можете фотографировать лучше, то вам не стоит торопиться покупать дорогое оборудование или ехать в Альпы ради красивых снимков!
Для того чтобы вам помочь, я собрал все свои знания в удобный и понятный курс, который способен за пару месяцев даже из новичка сделать грамотного и сильного фотографа.
Сэкономив при этом массу времени, сил и денег, которые обычно тратятся на самостоятельный поиск всех необходимых ответов!
Теперь все секреты построения красивых фотографий есть в одной эффективной системе под названием «Безупречная композиция. Полный курс»!
Программа курса:
1 ступень: Учимся захватывать внимание зрителя
2 ступень: Идеальное расположение объектов в кадре
3 ступень: Секрет объемных фотографий
4 ступень: Движение и спокойствие в кадре – создание сильных фотографий
5 ступень: Осваиваем цвета, фактуры, текстуры
Продолжительность: 04:00:00
Качество видео: PCRec
Видео: AVC/H.264, 1280x720, ~1206 Kbps
Аудио: AAC, 2 ch, 253 Kbps

MediaInfo:

General
Format : MPEG-4
Codec ID : M4V (M4V /mp42/isom)
File size : 381 MiB
Duration : 23 min
Overall bit rate mode : Variable
Overall bit rate : 2 302 kb/s
Encoded date : UTC 2015-03-18 07:56:33
Tagged date : UTC 2015-03-18 07:56:37
©TIM : 00:00:00:00
©TSC : 24000
©TSZ : 1001
Video
ID : 1
Format : AVC
Format/Info : Advanced Video Codec
Format profile : Baseline@L3.1
Format settings, CABAC : No
Format settings, ReFrames : 2 frames
Format settings, GOP : M=1, N=72
Codec ID : avc1
Codec ID/Info : Advanced Video Coding
Duration : 23 min
Source duration : 23 min
Bit rate mode : Variable
Bit rate : 2 046 kb/s
Maximum bit rate : 2 445 kb/s
Width : 1 280 pixels
Height : 720 pixels
Display aspect ratio : 16:9
Frame rate mode : Variable
Frame rate : 23.976 (24000/1001) FPS
Minimum frame rate : 23.976 FPS
Maximum frame rate : 24.000 FPS
Standard : NTSC
Color space : YUV
Chroma subsampling : 4:2:0
Bit depth : 8 bits
Scan type : Progressive
Bits/(Pixel*Frame) : 0.093
Stream size : 339 MiB (89%)
Source stream size : 339 MiB (89%)
Language : English
Encoded date : UTC 2015-03-18 07:56:33
Tagged date : UTC 2015-03-18 07:56:33
Color range : Limited
mdhd_Duration : 1388304
Audio
ID : 2
Format : AAC
Format/Info : Advanced Audio Codec
Format profile : LC
Codec ID : 40
Duration : 23 min
Source duration : 23 min
Bit rate mode : Variable
Bit rate : 253 kb/s
Maximum bit rate : 356 kb/s
Channel(s) : 2 channels
Channel positions : Front: L R
Sampling rate : 48.0 kHz
Frame rate : 46.875 FPS (1024 spf)
Compression mode : Lossy
Stream size : 41.9 MiB (11%)
Source stream size : 41.9 MiB (11%)
Language : English
Encoded date : UTC 2015-03-18 07:56:33
Tagged date : UTC 2015-03-18 07:56:33
mdhd_Duration : 1388352
Скриншоты:

Дополнительные скриншоты:

Скачать .torrent

Чтобы скачать торрент-файл

Александр Заморин и Софи Лебедева - Безупречная композиция. Полный курс! (2015)

Вам нужно Авторизоваться на сайте под своим логином. Если у Вы ещё не зарегистрированы, тогда Вам нужно пройти Регистрацию


Показать сообщения:    
Ответить на тему

Скачать Александр Заморин и Софи Лебедева - Безупречная композиция. Полный курс! (2015) торрент бесплатно. Отзывы, слив складчины.

Текущее время: Сегодня 14:10

Часовой пояс: GMT + 4



Вы не можете начинать темы
Вы не можете отвечать на сообщения
Вы не можете редактировать свои сообщения
Вы не можете удалять свои сообщения
Вы не можете голосовать в опросах
Вы не можете прикреплять файлы к сообщениям
Вы не можете скачивать файлы