OTUS - Нагрузочное тестирование [Части 3 из 3] (2020) торрент

Ответить на тему
 
Автор Сообщение

Prescious ®

OTUS | Нагрузочное тестирование [Части 3 из 3] (2020) PCRec - Автор: OTUS
Жанр: Тестирование
Описание:
В свете последних событий, всё больше возрастают нагрузки на различные online сервисы, многие оффлайн предприятия создают информационные системы, производительность которых должна удовлетворять потребности многочисленных пользователей, в связи с чем на рынке требуются специалисты в области нагрузочного тестирования!
В результате курса вы:
  • получите полезные навыки не только в написании скриптов / тестов, но и в прикладных областях нагрузочного тестирования (в которые специалист по НТ погружен ~50% времени): мониторинг, планирование нагрузочного тестирования, методики и отчетность, оценка качества тестирования
  • научитесь работать в 5-ти популярных и востребованных средствах НТ: Performance center, Jmeter, Gatling, Яндекс.Танк, k6.io
  • расширите теоритическую базу знаний о нагрузочном тестировании и сможете правильно её применять на практике
Продолжительность: 34:51:12
Качество видео: PCRec
Видео: AVC/H.264, 1280x720-1920x1080, ~165 Kbps
Аудио: AAC, 2 ch, 126 Kbps

MediaInfo:

Общее
Полное имя : [OTUS] Нагрузочное тестирование. Часть 1 из 3 (2020)\1. НТ- цели, события, показатели, основные этапы\Вебинар.mp4
Формат : MPEG-4
Профиль формата : Base Media / Version 2
Идентификатор кодека : mp42 (isom/mp42)
Размер файла : 186 Мбайт
Продолжительность : 1 ч. 28 м.
Режим общего битрейта : Переменный
Общий поток : 293 Кбит/сек
Дата кодирования : UTC 2020-08-19 08:05:27
Дата пометки : UTC 2020-08-19 08:05:27
Видео
Идентификатор : 1
Формат : AVC
Формат/Информация : Advanced Video Codec
Профиль формата : Main@L3.1
Настройки формата : CABAC / 3 Ref Frames
Параметр CABAC формата : Да
Параметр RefFrames формата : 3 кадра
Идентификатор кодека : avc1
Идентификатор кодека/Информация : Advanced Video Coding
Продолжительность : 1 ч. 28 м.
Продолжительность оригинала : 1 ч. 28 м.
Битрейт : 165 Кбит/сек
Ширина : 1 280 пикселей
Высота : 720 пикселей
Соотношение сторон : 16:9
Режим частоты кадров : Постоянный
Частота кадров : 30,000 кадров/сек
Стандарт вещания : NTSC
Цветовое пространство : YUV
Субдискретизация насыщенности : 4:2:0
Битовая глубина : 8 бит
Тип развёртки : Прогрессивная
Бит/(Пиксели*Кадры) : 0.006
Размер потока : 105 Мбайт (56%)
Размер потока оригинала : 105 Мбайт (56%)
Язык : English
Дата кодирования : UTC 2020-08-19 08:05:28
Дата пометки : UTC 2020-08-19 08:05:28
Цветовой диапазон : Limited
Codec configuration box : avcC
Аудио
Идентификатор : 2
Формат : AAC LC
Формат/Информация : Advanced Audio Codec Low Complexity
Идентификатор кодека : mp4a-40-2
Продолжительность : 1 ч. 28 м.
Вид битрейта : Переменный
Битрейт : 126 Кбит/сек
Максимальный битрейт : 380 Кбит/сек
Каналы : 2 канала
Channel layout : L R
Частота : 44,1 КГц
Частота кадров : 43,066 кадра/сек (1024 SPF)
Метод сжатия : С потерями
Размер потока : 79,8 Мбайт (43%)
Язык : English
Дата кодирования : UTC 2020-08-19 08:05:28
Дата пометки : UTC 2020-08-19 08:05:28

Дополнительная информация:

В релизе содержаться zip архивы с дополнительными материалами
Скриншоты:
Скачать .torrent

Чтобы скачать торрент-файл

OTUS - Нагрузочное тестирование [Части 3 из 3] (2020)

Вам нужно Авторизоваться на сайте под своим логином. Если у Вы ещё не зарегистрированы, тогда Вам нужно пройти Регистрацию


Показать сообщения:    
Ответить на тему

Скачать OTUS - Нагрузочное тестирование [Части 3 из 3] (2020) торрент бесплатно. Отзывы, слив складчины.

Текущее время: Сегодня 01:22

Часовой пояс: GMT + 4



Вы не можете начинать темы
Вы не можете отвечать на сообщения
Вы не можете редактировать свои сообщения
Вы не можете удалять свои сообщения
Вы не можете голосовать в опросах
Вы не можете прикреплять файлы к сообщениям
Вы не можете скачивать файлы