Артем Назаров - Трейдер 1.0 Тариф «Старт» (2020) торрент

Ответить на тему
 
Автор Сообщение

Prescious ®

Артем Назаров | Трейдер 1.0 Тариф «Старт» (2020) PCRec - Автор: Артем Назаров
Жанр: Трейдинг
Описание:
О чем этот курс?
Курс по трейдингу на фондовой бирже, который поможет разобраться в азах биржевой торговли и понять, подходит ли Вам данная сфера. Это базовые знания для тех, кто хочет научиться фундаменальному и техническому анализу. Самостоятельно создать торговую систему и регулировать риск и прибыль.
Для кого предназначен курс?
Этот курс для тех, кто хочет научиться эффективно управлять капиталом, чтобы работать и зарабатывать из любой точки мира.
Курс подходит и новичкам, и тем кто просто знаком с фондовым рынком, и хочет увеличить отдачу капитала, научиться определять точки входа и выхода.
Вам потребуется смартфон, компьютер или ноутбук, доступ в интернет.
Продолжительность: 04:28:13
Качество видео: PCRec
Язык озвучки: Русский
Видео: AVC/H.264, 1920x1080, ~3 256 Кбит/сек
Аудио: AAC, 2 ch, 128 Кбит/сек

MediaInfo:

Общее
Полное имя : D:\Sliv\Трейдер 1.0 Тариф «Старт» (Артем Назаров)\Трейдер\Модуль 3. Учимся анализировать рынок\Урок 3.2 Технический Анализ (1).mp4
Формат : MPEG-4
Профиль формата : Base Media / Version 2
Идентификатор кодека : mp42 (isom/iso2/avc1/mp41/mp42)
Размер файла : 174 Мбайт
Продолжительность : 7 м. 10 с.
Режим общего битрейта : Переменный
Общий поток : 3 389 Кбит/сек
Видео
Идентификатор : 1
Формат : AVC
Формат/Информация : Advanced Video Codec
Профиль формата : High@L4
Настройки формата : CABAC / 2 Ref Frames
Параметр CABAC формата : Да
Параметр RefFrames формата : 2 кадра
Параметр GOP формата : M=3, N=15
Идентификатор кодека : avc1
Идентификатор кодека/Информация : Advanced Video Coding
Продолжительность : 7 м. 10 с.
Вид битрейта : Переменный
Битрейт : 3 256 Кбит/сек
Максимальный битрейт : 8 000 Кбит/сек
Ширина : 1 920 пикселей
Высота : 1 080 пикселей
Соотношение сторон : 16:9
Режим частоты кадров : Постоянный
Частота кадров : 30,000 кадров/сек
Цветовое пространство : YUV
Субдискретизация насыщенности : 4:2:0
Битовая глубина : 8 бит
Тип развёртки : Прогрессивная
Бит/(Пиксели*Кадры) : 0.052
Размер потока : 167 Мбайт (96%)
Codec configuration box : avcC
Аудио
Идентификатор : 2
Формат : AAC LC
Формат/Информация : Advanced Audio Codec Low Complexity
Идентификатор кодека : mp4a-40-2
Продолжительность : 7 м. 9 с.
Вид битрейта : Переменный
Битрейт : 128 Кбит/сек
Каналы : 2 канала
Channel layout : L R
Частота : 48,0 КГц
Частота кадров : 46,875 кадров/сек (1024 SPF)
Метод сжатия : С потерями
Размер потока : 6,58 Мбайт (4%)
Default : Да
Alternate group : 1
Скриншоты:
Скачать .torrent

Чтобы скачать торрент-файл

Артем Назаров - Трейдер 1.0 Тариф «Старт» (2020)

Вам нужно Авторизоваться на сайте под своим логином. Если у Вы ещё не зарегистрированы, тогда Вам нужно пройти Регистрацию


Показать сообщения:    
Ответить на тему

Скачать Артем Назаров - Трейдер 1.0 Тариф «Старт» (2020) торрент бесплатно. Отзывы, слив складчины.

Текущее время: Сегодня 03:06

Часовой пояс: GMT + 4



Вы не можете начинать темы
Вы не можете отвечать на сообщения
Вы не можете редактировать свои сообщения
Вы не можете удалять свои сообщения
Вы не можете голосовать в опросах
Вы не можете прикреплять файлы к сообщениям
Вы не можете скачивать файлы