Новые раздачи

02-Дек
02-Дек
02-Дек
01-Дек
01-Дек
01-Дек
01-Дек
01-Дек
01-Дек
01-Дек
01-Дек
01-Дек
01-Дек
30-Ноя
30-Ноя

Важное

Bang Bang Education - Дизайн-библиотека (2020) торрент

Ответить на тему
 
Автор Сообщение

Prescious ®

Bang Bang Education | Дизайн-библиотека (2020) PCRec - Автор: Bang Bang Education
Жанр: Дизайн
Описание:
53 курса с дизайн-библиотеки Bang Bang education, скачанные во время акции.
Список курсов можете посмотреть кликнув по ссылке "Автор"
Продолжительность: 16:55:02
Качество видео: PCRec
Язык озвучки: Русский
Видео: AVC, 1280x720, ~1157 Кбит/сек
Аудио: AAC, 2 ch, 256 Кбит/сек

MediaInfo:

Общее
Полное имя : D:\Sliv\[BangBangEducation] Дизайн-библиотека (2020)\Часть 1\Здоровые настройки\ Здоровые настройки. Лекция 2. 720p.mp4
Формат : MPEG-4
Профиль формата : Base Media / Version 2
Идентификатор кодека : mp42 (mp42/mp41/isom/avc1)
Размер файла : 326 Мбайт
Продолжительность : 32 м. 9 с.
Режим общего битрейта : Переменный
Общий поток : 1 417 Кбит/сек
Дата кодирования : UTC 2017-10-10 02:35:15
Дата пометки : UTC 2017-10-10 02:35:15
Видео
Идентификатор : 1
Формат : AVC
Формат/Информация : Advanced Video Codec
Профиль формата : High@L3.2
Настройки формата : CABAC / 5 Ref Frames
Параметр CABAC формата : Да
Параметр RefFrames формата : 5 кадров
Идентификатор кодека : avc1
Идентификатор кодека/Информация : Advanced Video Coding
Продолжительность : 32 м. 9 с.
Битрейт : 1 157 Кбит/сек
Ширина : 1 280 пикселей
Высота : 720 пикселей
Соотношение сторон : 16:9
Режим частоты кадров : Постоянный
Частота кадров : 25,000 кадров/сек
Цветовое пространство : YUV
Субдискретизация насыщенности : 4:2:0
Битовая глубина : 8 бит
Тип развёртки : Прогрессивная
Бит/(Пиксели*Кадры) : 0.050
Размер потока : 266 Мбайт (82%)
Библиотека кодирования : x264 core 152 r10 ba24899
Настройки программы : cabac=1 / ref=5 / deblock=1:0:0 / analyse=0x3:0x113 / me=hex / subme=8 / psy=1 / psy_rd=1.00:0.00 / mixed_ref=1 / me_range=16 / chroma_me=1 / trellis=2 / 8x8dct=1 / cqm=0 / deadzone=21,11 / fast_pskip=1 / chroma_qp_offset=-2 / threads=22 / lookahead_threads=3 / sliced_threads=0 / nr=0 / decimate=1 / interlaced=0 / bluray_compat=0 / stitchable=1 / constrained_intra=0 / bframes=3 / b_pyramid=2 / b_adapt=2 / b_bias=0 / direct=3 / weightb=1 / open_gop=0 / weightp=2 / keyint=infinite / keyint_min=25 / scenecut=40 / intra_refresh=0 / rc_lookahead=50 / rc=crf / mbtree=1 / crf=20.0 / qcomp=0.60 / qpmin=5 / qpmax=69 / qpstep=4 / vbv_maxrate=2750 / vbv_bufsize=7500 / crf_max=0.0 / nal_hrd=none / filler=0 / ip_ratio=1.40 / aq=1:1.00
Дата кодирования : UTC 2017-10-10 02:35:15
Дата пометки : UTC 2017-10-10 02:35:15
Цветовой диапазон : Limited
Основные цвета : BT.709
Характеристики трансфера : BT.709
Коэффициенты матрицы : BT.709
Codec configuration box : avcC
Аудио
Идентификатор : 2
Формат : AAC LC
Формат/Информация : Advanced Audio Codec Low Complexity
Идентификатор кодека : mp4a-40-2
Продолжительность : 32 м. 9 с.
Вид битрейта : Переменный
Битрейт : 256 Кбит/сек
Каналы : 2 канала
Channel layout : L R
Частота : 48,0 КГц
Частота кадров : 46,875 кадров/сек (1024 SPF)
Метод сжатия : С потерями
Размер потока : 58,9 Мбайт (18%)
Дата кодирования : UTC 2017-10-10 02:35:15
Дата пометки : UTC 2017-10-10 02:35:15
Скриншоты:
Скачать .torrent

Чтобы скачать торрент-файл

Bang Bang Education - Дизайн-библиотека (2020)

Вам нужно Авторизоваться на сайте под своим логином. Если у Вы ещё не зарегистрированы, тогда Вам нужно пройти Регистрацию


Показать сообщения:    
Ответить на тему

Скачать Bang Bang Education - Дизайн-библиотека (2020) торрент бесплатно. Отзывы, слив складчины.

Текущее время: Сегодня 07:47

Часовой пояс: GMT + 4



Вы не можете начинать темы
Вы не можете отвечать на сообщения
Вы не можете редактировать свои сообщения
Вы не можете удалять свои сообщения
Вы не можете голосовать в опросах
Вы не можете прикреплять файлы к сообщениям
Вы не можете скачивать файлы