СG-SСНOОL.оrg, Андрей Заморский - 3ds max — vfx (2013) торрент

Ответить на тему
 
Автор Сообщение

Prescious ®

СG-SСНOОL.оrg, Андрей Заморский | 3ds max — vfx (2013) PCRec - Автор: Андрей Заморский
Производство: СG-SСНOОL.оrg
Жанр: Создание видео
Описание:
  • работать с флюидами, водой, разрушениями, огнем, дымом, частицами. Создавать хвосты от ракет, самолетов, трейлы и тп.
  • работать с такими плагинами для симуляции и рендеринга динамики: rayfire, fumefx, thinking particles, real flow, naiad, krakatoa.
  • создавать визуальные эффекты для кино, клипов, рекламы - разрушения, взрывы, огонь, пыль, дым.
  • загружать в 3ds max данные плагинов, работать с ними.
  • правильно выводить пассы данных, содержащих динамику, передавать их на композ.
  • узнаете принципы и основы динамики твердых тел и флюидов в CGI.
Продолжительность: 17:16:01
Качество видео: PCRec
Видео: AVC/H.264, 1920x1080, ~1367kbps
Аудио: AAC, 2 ch, 192kbps

MediaInfo:

General
Complete name : K:\3ds max vfx\Онлайн курc по 3ds max VFX от 13-го мая. Урок 1.mp4
Format : MPEG-4
Format profile : Base Media / Version 2
Codec ID : mp42 (isom/mp42)
File size : 2.04 GiB
Duration : 3 h 6 min
Overall bit rate mode : Variable
Overall bit rate : 1 562 kb/s
Encoded date : UTC 2013-05-13 19:14:29
Tagged date : UTC 2013-05-13 19:14:29
gsst : 0
gstd : 11206623
gssd : B4A7DDA07HH1368642026964119
gshh : r7---sn-4g57kuee.c.youtube.com
Video
ID : 1
Format : AVC
Format/Info : Advanced Video Codec
Format profile : High@L4
Format settings : CABAC / 1 Ref Frames
Format settings, CABAC : Yes
Format settings, Reference fra : 1 frame
Format settings, GOP : M=1, N=50
Codec ID : avc1
Codec ID/Info : Advanced Video Coding
Duration : 3 h 6 min
Bit rate : 1 368 kb/s
Maximum bit rate : 7 356 kb/s
Width : 1 920 pixels
Height : 1 080 pixels
Display aspect ratio : 16:9
Frame rate mode : Constant
Frame rate : 25.000 FPS
Color space : YUV
Chroma subsampling : 4:2:0
Bit depth : 8 bits
Scan type : Progressive
Bits/(Pixel*Frame) : 0.026
Stream size : 1.78 GiB (88%)
Tagged date : UTC 2013-05-13 19:38:40
Codec configuration box : avcC
Audio
ID : 2
Format : AAC LC
Format/Info : Advanced Audio Codec Low Complexity
Codec ID : mp4a-40-2
Duration : 3 h 6 min
Bit rate mode : Variable
Bit rate : 192 kb/s
Maximum bit rate : 201 kb/s
Channel(s) : 2 channels
Channel layout : L R
Sampling rate : 44.1 kHz
Frame rate : 43.066 FPS (1024 SPF)
Compression mode : Lossy
Stream size : 256 MiB (12%)
Title : IsoMedia File Produced by Google, 5-11-2011
Encoded date : UTC 2013-05-13 19:28:15
Tagged date : UTC 2013-05-13 19:38:40

Дополнительная информация:

Программное обеспечение: 3ds max, rayfire, fumefx, thinking particles, real flow, naiad, krakatoa.
Файлы примеров: Нет

Полная программа курса:

Урок 1 — Создание огня и дыма при помощи FumeFX
Симуляция огня.
Взрывы и выстрелы. Теория, методика создания.
Дымовые эффекты.
Урок 2 — Разрушения, основы фрагментации
Виды фрагментации.
Понятие динамики.
Создание и динамика при помощи RayFire и Thinking Particles.
Урок 3 — Работа с частичками
Генератор частичек PFlow.
Использование Krakatoa при симуляции частиц.
Импорт частиц из Real Flow, Naiad.
Thinking particles.
Урок 4 — Симуляция водной поверхности
Методы создания водной поверхности.
Влияние обьктов на поверхность.
Создание брызг (Pflow, Real Flow, Krakatoa)
Урок 5 — Атмосферные эффекты
Симуляция облаков при помощи AfterBurn и FumeFX.
Снег и дождь.
Создание тумана, обьёмный свет.
Урок 6 — Финальное построение сцены
Методы экспорта-импорта ранее созданых симуляций.
Настройка сцены для рендера.
Методы просчета финального результата.

Чем эти курсы лучше других?

хорошие преподаватели, имеющие Большой опыт работы с кинопроектами и рекламой, клипами, а также большой опыт написания полезных уроков и туториалов, которые сейчас просматривают тысячи cg- артистов.
учим, в первую очередь, понимать программу и решать реальные задачи в cgi. На втором месте инструментарий и теория.
вы экономите ваши деньги. На сегодняшний день эти курсы одни из самых недорогих среди образовательных программ в мире.
преподавательский опыт работы с аудиторией и людьми. Легкая и доступная подача материала.
курсы проходят онлайн. Это значит, не зависимо от того с Москвы вы или из Киева, Санкт-Петербурга, Минска, Баку, Алма-Аты, Еревана или другого населенного пункта СНГ, сидя за своим удобным компьютером вы получаете знания и опыт.
разные формы обучения: по длительности и по оплате. Это обеспечивает индивидуальный подход к новичкам и уверенным пользователям, которые хотят поднять свои знания.
Скриншоты:
Скачать .torrent

Чтобы скачать торрент-файл

СG-SСНOОL.оrg, Андрей Заморский - 3ds max — vfx (2013)

Вам нужно Авторизоваться на сайте под своим логином. Если у Вы ещё не зарегистрированы, тогда Вам нужно пройти Регистрацию


Показать сообщения:    
Ответить на тему

Скачать СG-SСНOОL.оrg, Андрей Заморский - 3ds max — vfx (2013) торрент бесплатно. Отзывы, слив складчины.

Текущее время: Сегодня 19:24

Часовой пояс: GMT + 4



Вы не можете начинать темы
Вы не можете отвечать на сообщения
Вы не можете редактировать свои сообщения
Вы не можете удалять свои сообщения
Вы не можете голосовать в опросах
Вы не можете прикреплять файлы к сообщениям
Вы не можете скачивать файлы