cg-school.org, Андрей Заморский - Сборник видеоуроков по Corona Renderer на русском языке (2016) торрент

Ответить на тему
 
Автор Сообщение

Prescious ®

cg-school.org, Андрей Заморский | Сборник видеоуроков по Corona Renderer на русском языке (2016) PCRec - Автор: Андрей Заморский
Производство: cg-school.org
Жанр: Создание видео
Описание:
"Сборник видеоуроков по Corona Renderer на русском языке для быстрого освоения" от cg-school.org.
Продолжительность: 07:19:49
Качество видео: PCRec
Видео: AVC/H.264, 1920x1080, ~493kbps
Аудио: AAC, 2 ch, 125kbps

MediaInfo:

General
Complete name : K:\Corona\Уроки\CoronaLesson_1.mp4
Format : MPEG-4
Format profile : Base Media / Version 2
Codec ID : mp42 (isom/mp42)
File size : 40.7 MiB
Duration : 9 min 9 s
Overall bit rate mode : Variable
Overall bit rate : 621 kb/s
Encoded date : UTC 2016-06-22 19:17:25
Tagged date : UTC 2016-06-22 19:17:25
Video
ID : 1
Format : AVC
Format/Info : Advanced Video Codec
Format profile : Baseline@L4
Format settings : 3 Ref Frames
Format settings, CABAC : No
Format settings, Reference fra : 3 frames
Format settings, GOP : M=1, N=75
Codec ID : avc1
Codec ID/Info : Advanced Video Coding
Duration : 9 min 9 s
Source duration : 9 min 9 s
Bit rate : 493 kb/s
Width : 1 920 pixels
Height : 1 080 pixels
Display aspect ratio : 16:9
Frame rate mode : Variable
Frame rate : 15.000 FPS
Minimum frame rate : 15.000 FPS
Maximum frame rate : 15.008 FPS
Color space : YUV
Chroma subsampling : 4:2:0
Bit depth : 8 bits
Scan type : Progressive
Bits/(Pixel*Frame) : 0.016
Stream size : 32.3 MiB (79%)
Source stream size : 32.3 MiB (79%)
Language : English
Encoded date : UTC 2016-06-22 19:17:25
Tagged date : UTC 2016-06-22 19:17:25
Color range : Limited
mdhd_Duration : 549067
Codec configuration box : avcC
Audio
ID : 2
Format : AAC LC
Format/Info : Advanced Audio Codec Low Complexity
Codec ID : mp4a-40-2
Duration : 9 min 9 s
Source duration : 9 min 9 s
Bit rate mode : Variable
Bit rate : 126 kb/s
Maximum bit rate : 165 kb/s
Channel(s) : 2 channels
Channel layout : L R
Sampling rate : 44.1 kHz
Frame rate : 43.066 FPS (1024 SPF)
Compression mode : Lossy
Stream size : 8.23 MiB (20%)
Source stream size : 8.23 MiB (20%)
Language : English
Encoded date : UTC 2016-06-22 19:17:25
Tagged date : UTC 2016-06-22 19:17:25
mdhd_Duration : 549106

Дополнительная информация:

Программное обеспечение: 3ds max, Corona Renderer
Файлы примеров: Есть

Эти уроки для Вас, если Вы хотите:

быcтро изучить Corona Renderer на русском языке
делать красивые визуализации в 3ds max
рендерить анимацию с 3ds max без лишних усилий и дополнительных проходов
узнать нюансы настройки пассов в программе
научиться делать сборку сцен и постобработку в программе Nuke
Скриншоты:
Скачать .torrent

Чтобы скачать торрент-файл

cg-school.org, Андрей Заморский - Сборник видеоуроков по Corona Renderer на русском языке (2016)

Вам нужно Авторизоваться на сайте под своим логином. Если у Вы ещё не зарегистрированы, тогда Вам нужно пройти Регистрацию


Показать сообщения:    
Ответить на тему

Скачать cg-school.org, Андрей Заморский - Сборник видеоуроков по Corona Renderer на русском языке (2016) торрент бесплатно. Отзывы, слив складчины.

Текущее время: Сегодня 23:50

Часовой пояс: GMT + 4



Вы не можете начинать темы
Вы не можете отвечать на сообщения
Вы не можете редактировать свои сообщения
Вы не можете удалять свои сообщения
Вы не можете голосовать в опросах
Вы не можете прикреплять файлы к сообщениям
Вы не можете скачивать файлы