Мадина Дмитриева - Бизнес на краткосрочной аренде апартаментов (2019) торрент

Ответить на тему
 
Автор Сообщение

Prescious ®

Мадина Дмитриева | Бизнес на краткосрочной аренде апартаментов (2019) PCRec - Автор: Мадина Дмитриева
Производство: ИП "ДМИТРИЕВА"
Жанр: Бизнес, инвестиции
Описание:
Что дает бизнес по посуточной аренде квартир?
  • Высокий доход. Вы можете зарабатывать от 100 000 руб. в месяц имея при этом всего 5-6 доходных квартир.
  • Свобода. Настроив один раз все бизнес процессы Вы можете путешествовать, либо заниматься любимым делом, а тем временем бизнес будет работать как часы на автопилоте и приносить доход.

Продолжение описания:

  • Быстрый старт. С момента старта и до получения первых денег от бизнеса необходимо не более 20 дней.
  • Низкий порог входа. Данный вид бизнеса можно начать с минимальными вложениями, не нужно покупать квартиры и тратить баснословные деньги на их ремонт.
Для кого будет полезен:
Наемный работник:
Если вы понимаете, что работа на дядю - это не то, о чем вы мечтали всю жизнь, что пора бы уже что-то менять и освободиться от оков наемной работы
Начинающий предприниматель
Если вы перепробовали много разных ниш, но так нечего и не получилось из-за недостатка навыков и опыта.
Владелец бизнеса
Если вы владелец успешного бизнеса и подумывайте о открытии дополнительного направления приносящего, хороший доход.
СЕКРЕТНАЯ ПОШАГОВАЯ МЕТОДИКА ДОСТИЖЕНИЯ РЕЗУЛЬТАТОВ НА НАШЕМ ТРЕНИНГЕ!
ИЗУЧЕНИЕ МЕСТНОГО РЫНКА ПОСУТОЧНОЙ АРЕНДЫ КВАРТИР:
Технология запуска своего бизнеса
На каких самых рабочих площадках давать рекламу
Как написать правильное продающее объявление
Типовой текст объявления
Где и сколько необходимо разместить фейковых объявлений
Создание входящего потока клиентов
Домашнее задание
ИЗУЧЕНИЕ МЕСТНОГО РЫНКА ПОСУТОЧНОЙ АРЕНДЫ КВАРТИР:
Как принять первые входящие звонки
Что спрашивать у гостя
Как разместить гостей у наших коллег и заработать на комиссии
Изучение местного рынка посуточной аренды квартир
Продающий текст объявления
Пошаговый план действий
Скрипт разговора с гостем
ПОДБОР КВАРТИРЫ:
Чек - Лист по подбору квартиры
В каком районе снимать квартиры
Как определить идеальную квартиру
Что должно быть в квартире
Расчет экономической целесообразности квартиры (секретная формула за сколько снимать квартиру)
Как договориться с хозяином квартиры (скрипт разговора)
Тактика съема
Где искать квартиры для снятия их в аренду
ЗАПУСК КВАРТИРЫ:
Запуск своей квартиры
Все, что должно быть в квартире перед приемом гостей
Требования к фото
Финальные договоренности с хозяином
Правила бронирования (как вести график заселения квартиры и журнал клиентов)
Платные и бесплатные методы рекламы
Меры безопасность
ПОСТРОЕНИЕ БИЗНЕС СИСТЕМЫ:
План развития большого бизнеса
Организационная структура
Должностные обязанности менеджера и горничной
Средства управления бизнесом
Авторская online таблица
Как построить бизнес систему, которая работает без вас
3 Кита в бизнесе
Главные секреты успеха в бизнесе
БУХГАЛТЕРИЯ И ФИНАНСОВАЯ ГРАМОТНОСТЬ:
Что открыть? ООО, ИП, ТОО?
Какие отчетные документы мы предоставляем гостю
Формула расчета эффективности личного капитала (ROI)
Основные принципы инвестирования в недвижимость
МИРОВЫЕ ТЕНДЕНЦИИ ПОСУТОЧНОЙ АРЕНДЫ КВАРТИР:
Тенденции роста бизнеса в цифрах
Наше отличие от гостиниц
Гостеприимство
Наши примеры проживания в квартирах посуточно в разных странах мира
Как стать № 1 в своем городе по приему гостей
Форма обратной связи
ПОСТАНОВКА ЦЕЛЕЙ И ЛИЧНАЯ ЭФФЕКТИВНОСТЬ:
Колесо жизни
Как правильно ставить цели
Как быстро достигать целей
Расстановка приоритетов
Тест мечты
Как поменять свои ограничивающие убеждения
Фокус нашего внимания
Как повысить свои стандарты
Конечная формула успеха
Продолжительность: 34:14:09
Качество видео: PCRec
Видео: AVC/H.264, 864x540, ~1142 Kbps
Аудио: AAC, 2 ch, 235 Kbps

MediaInfo:

Общее
Полное имя : O:\[Мадина Дмитриева] Бизнес на краткосрочной аренде апартаментов (2019)\Бизнес на посуточной аренде квартир с нуля\Урок 4\Урок Запуск своей квартиры.mp4
Формат : MPEG-4
Профиль формата : Base Media / Version 2
Идентификатор кодека : mp42 (mp42/mp41/isom/avc1)
Размер файла : 943 Мбайт
Продолжительность : 1 ч. 35 м.
Режим общего битрейта : Переменный
Общий поток : 1 382 Кбит/сек
Дата кодирования : UTC 2017-02-23 11:11:16
Дата пометки : UTC 2017-02-23 11:11:16
Видео
Идентификатор : 1
Формат : AVC
Формат/Информация : Advanced Video Codec
Профиль формата : High@L3.1
Настройки формата : CABAC / 4 Ref Frames
Параметр CABAC формата : Да
Параметр RefFrames формата : 4 кадра
Идентификатор кодека : avc1
Идентификатор кодека/Информация : Advanced Video Coding
Продолжительность : 1 ч. 35 м.
Битрейт : 1 142 Кбит/сек
Ширина : 864 пикселя
Высота : 540 пикселей
Соотношение сторон : 16:10
Режим частоты кадров : Постоянный
Частота кадров : 30,000 кадров/сек
Цветовое пространство : YUV
Субдискретизация насыщенности : 4:2:0
Битовая глубина : 8 бит
Тип развёртки : Прогрессивная
Бит/(Пиксели*Кадры) : 0.082
Размер потока : 779 Мбайт (83%)
Библиотека кодирования : x264 core 148 r10 b97ae06
Настройки программы : cabac=1 / ref=3 / deblock=1:0:0 / analyse=0x3:0x113 / me=hex / subme=7 / psy=1 / psy_rd=1.00:0.00 / mixed_ref=1 / me_range=16 / chroma_me=1 / trellis=1 / 8x8dct=1 / cqm=0 / deadzone=21,11 / fast_pskip=1 / chroma_qp_offset=-2 / threads=17 / lookahead_threads=2 / sliced_threads=0 / nr=0 / decimate=1 / interlaced=0 / bluray_compat=0 / stitchable=1 / constrained_intra=0 / bframes=3 / b_pyramid=2 / b_adapt=1 / b_bias=0 / direct=1 / weightb=1 / open_gop=0 / weightp=2 / keyint=infinite / keyint_min=30 / scenecut=40 / intra_refresh=0 / rc_lookahead=40 / rc=crf / mbtree=1 / crf=20.0 / qcomp=0.60 / qpmin=5 / qpmax=69 / qpstep=4 / vbv_maxrate=1650 / vbv_bufsize=1800 / crf_max=0.0 / nal_hrd=none / filler=0 / ip_ratio=1.40 / aq=1:1.00
Дата кодирования : UTC 2017-02-23 11:11:16
Дата пометки : UTC 2017-02-23 11:11:16
Цветовой диапазон : Limited
Основные цвета : BT.601 NTSC
Характеристики трансфера : BT.601
Коэффициенты матрицы : BT.601
Codec configuration box : avcC
Аудио
Идентификатор : 2
Формат : AAC LC
Формат/Информация : Advanced Audio Codec Low Complexity
Идентификатор кодека : mp4a-40-2
Продолжительность : 1 ч. 35 м.
Вид битрейта : Переменный
Битрейт : 235 Кбит/сек
Каналы : 2 канала
Channel layout : L R
Частота : 48,0 КГц
Частота кадров : 46,875 кадров/сек (1024 SPF)
Метод сжатия : С потерями
Размер потока : 160 Мбайт (17%)
Дата кодирования : UTC 2017-02-23 11:11:16
Дата пометки : UTC 2017-02-23 11:11:16
Скриншоты:
Скачать .torrent

Чтобы скачать торрент-файл

Мадина Дмитриева - Бизнес на краткосрочной аренде апартаментов (2019)

Вам нужно Авторизоваться на сайте под своим логином. Если у Вы ещё не зарегистрированы, тогда Вам нужно пройти Регистрацию


Показать сообщения:    
Ответить на тему

Скачать Мадина Дмитриева - Бизнес на краткосрочной аренде апартаментов (2019) торрент бесплатно. Отзывы, слив складчины.

Текущее время: Сегодня 05:58

Часовой пояс: GMT + 4



Вы не можете начинать темы
Вы не можете отвечать на сообщения
Вы не можете редактировать свои сообщения
Вы не можете удалять свои сообщения
Вы не можете голосовать в опросах
Вы не можете прикреплять файлы к сообщениям
Вы не можете скачивать файлы