Justin Marshall - Topology Tools in TopoGun 2.0 (2016) торрент

Ответить на тему
 
Автор Сообщение

Prescious ®

Justin Marshall | Topology Tools in TopoGun 2.0 (2016) PCRec [En, Ru] - Автор: Justin Marshall
Производство: Digital-tutors
Жанр: Создание видео
Описание:
В этой серии уроков мы погорим о некоторых инструментах топологии доступных в Topogun 2.0. Вначале рассмотрим несколько различных путей быстрого создания новой топологии для длинных цилиндрических элементов, таких как руки или другие конечности.

Продолжение описания:

Мы рассмотрим изменённый инструмент Draw(Рисовать), а так же новый инструмент Tubes(Трубы). Мы также изучим инструмент Extrude(Выдавливание, экструдирование), и как его можно использовать, чтобы быстро расширить существующую топологию вдоль поверхности наших референсных мешей. Инструмент Brush(Кисть) является отличным инструментом для перемещения новой топологию по референсной поверхности или для перераспределения точек, чтобы создать идеальную, чистую топологию. Мы также поговорим и о других способах использования инструмента Brush. Рассмотрим новые возможности симметрии, и каким образом они применимы к нашим инструментам, как мы можем настроить плоскости симметрии для слегка асимметричных форм. Изучим Morpher(Морфер) для изменения существующей топологии, для соответствия с изменениям в референсных мешах. В итоге вы будете иметь лучшее представление о возможностях, доступных в Topogun 2.0, и как эти функции могут помочь вам, в ретопологии своих собственных моделей. Topogun 2.0 пока в бета версии так что все еще могут быть некоторые проблемы. но это лишь на некоторое время, а повышение эффективности некоторых инструментов делает его всё таки отличным выбором.
Продолжительность: 00:54:13
Качество видео: PCRec
Язык озвучки: Английский, Русский
Видео: AVC/H.264, 1280x720, ~900kbps
Аудио: AAC, 2 ch, 128kbps
Аудио 2: MP3, 2 ch, 192kbps (отдельным файлом)

MediaInfo:

General
Complete name : M:\[Digital Tutors] - Topology Tools in TopoGun 2.0 [ENG-RUS]\02_Creating_cylindrical_topology_with_the_Draw_tool.flv
Format : Flash Video
File size : 75.3 MiB
Duration : 10 min 7 s
Overall bit rate : 1 040 kb/s
Writing application : Lavf53.24.0
Video
Format : AVC
Format/Info : Advanced Video Codec
Format profile : Baseline@L3.1
Format settings : 3 Ref Frames
Format settings, CABAC : No
Format settings, Reference fra : 3 frames
Codec ID : 7
Duration : 10 min 7 s
Bit rate : 900 kb/s
Width : 1 280 pixels
Height : 720 pixels
Display aspect ratio : 16:9
Frame rate mode : Constant
Frame rate : 15.000 FPS
Color space : YUV
Chroma subsampling : 4:2:0
Bit depth : 8 bits
Scan type : Progressive
Bits/(Pixel*Frame) : 0.065
Stream size : 65.1 MiB (87%)
Writing library : x264 core 118 r2085 8a62835
Encoding settings : cabac=0 / ref=3 / deblock=1:0:0 / analyse=0x1:0x111 / me=hex / subme=7 / psy=1 / psy_rd=1.00:0.00 / mixed_ref=1 / me_range=16 / chroma_me=1 / trellis=1 / 8x8dct=0 / cqm=0 / deadzone=21,11 / fast_pskip=1 / chroma_qp_offset=-2 / threads=12 / sliced_threads=0 / nr=0 / decimate=1 / interlaced=0 / bluray_compat=0 / constrained_intra=0 / bframes=0 / weightp=0 / keyint=250 / keyint_min=15 / scenecut=40 / intra_refresh=0 / rc_lookahead=40 / rc=abr / mbtree=1 / bitrate=900 / ratetol=1.0 / qcomp=0.60 / qpmin=0 / qpmax=69 / qpstep=4 / ip_ratio=1.40 / aq=1:1.00
Audio
Format : AAC LC
Format/Info : Advanced Audio Codec Low Complexity
Codec ID : 10-2
Duration : 10 min 7 s
Bit rate : 125 kb/s
Channel(s) : 2 channels
Channel layout : L R
Sampling rate : 44.1 kHz
Frame rate : 43.066 FPS (1024 SPF)
Compression mode : Lossy
Delay relative to video : 67 ms
Stream size : 9.05 MiB (12%)

Дополнительная информация:

Программное обеспечение: TopoGun 2
Файлы примеров: присутствуют

Содержание:

1. Введение и обзор проекта
2. Создание цилиндрической топологии с помощью инструмента Draw (Рисовать)
3. Использование инструмента Tubes (Трубы)
4. Экструдирование геометрии инструментом Extrude (Экструд)
5. Изменение топологии с помощью инструмента Brush (Ксить)
6. Симметричная работа
7. Использование Symmetry Warps (Симметричная деформация)
8. Использование Morpher (Морфер)
Скриншоты:
Скачать .torrent

Чтобы скачать торрент-файл

Justin Marshall - Topology Tools in TopoGun 2.0 (2016)

Вам нужно Авторизоваться на сайте под своим логином. Если у Вы ещё не зарегистрированы, тогда Вам нужно пройти Регистрацию


Показать сообщения:    
Ответить на тему

Скачать Justin Marshall - Topology Tools in TopoGun 2.0 (2016) торрент бесплатно. Отзывы, слив складчины.

Текущее время: Сегодня 14:30

Часовой пояс: GMT + 4



Вы не можете начинать темы
Вы не можете отвечать на сообщения
Вы не можете редактировать свои сообщения
Вы не можете удалять свои сообщения
Вы не можете голосовать в опросах
Вы не можете прикреплять файлы к сообщениям
Вы не можете скачивать файлы