Chung Kan - Hard Surface 3D Modeling for Production (2015) торрент

Ответить на тему
 
Автор Сообщение

Prescious ®

Chung Kan | Hard Surface 3D Modeling for Production (2015) PCRec [EN, RU] - Автор: Chung Kan
Производство: Gumroad
Жанр: Создание видео
Описание:
В этом уроке вы узнаете, как создать научно-фантастического робота, используя методы моделирования твердотельных поверхностей, которые используются в профессиональной среде производства как в игровой индустрии, так и в индустрии кино. Вам станут известны не только технические аспекты твердотельного моделирования, но и мой подход к творческому дизайну. Базовые знания 3Ds Max желательны, но данные принципы и методы также могут быть использованы в любом другом пакете трехмерного моделирования.
Продолжительность: 11:38:32
Качество видео: PCRec
Язык озвучки: Английский, Русский
Видео: AVC/H.264, 1640x1024, ~2060kbps
Аудио: MP3, 1 ch, 128kbps
Аудио 2: ACC, 2 ch, 37kbps (отдельным файлом)

MediaInfo:

General
Complete name : M:\[Gumroad] - Hard Surface 3D Modeling for Production by Chung Kan [ENG-RUS]\Part1_Head_Blockout.mp4
Format : MPEG-4
Format profile : Base Media / Version 2
Codec ID : mp42 (isom/mp42)
File size : 1.91 GiB
Duration : 2 h 9 min
Overall bit rate mode : Variable
Overall bit rate : 2 100 kb/s
Movie name : Part1: Head Blockout by Chung Kan
Encoded date : UTC 2015-02-04 03:38:44
Tagged date : UTC 2015-02-04 03:38:44
Video
ID : 1
Format : AVC
Format/Info : Advanced Video Codec
Format profile : Baseline@L4
Format settings : 3 Ref Frames
Format settings, CABAC : No
Format settings, Reference fra : 3 frames
Format settings, GOP : M=1, N=75
Codec ID : avc1
Codec ID/Info : Advanced Video Coding
Duration : 2 h 9 min
Source duration : 2 h 9 min
Bit rate : 2 060 kb/s
Width : 1 640 pixels
Height : 1 024 pixels
Display aspect ratio : 16:10
Frame rate mode : Variable
Frame rate : 15.000 FPS
Minimum frame rate : 15.000 FPS
Maximum frame rate : 15.008 FPS
Color space : YUV
Chroma subsampling : 4:2:0
Bit depth : 8 bits
Scan type : Progressive
Bits/(Pixel*Frame) : 0.082
Stream size : 1.87 GiB (98%)
Source stream size : 1.87 GiB (98%)
Language : English
Encoded date : UTC 2015-02-04 03:38:44
Tagged date : UTC 2015-02-04 03:38:44
Color range : Limited
mdhd_Duration : 7797867
Codec configuration box : avcC
Audio
ID : 2
Format : AAC LC
Format/Info : Advanced Audio Codec Low Complexity
Codec ID : mp4a-40-2
Duration : 2 h 9 min
Source duration : 2 h 9 min
Bit rate mode : Variable
Bit rate : 37.6 kb/s
Maximum bit rate : 273 kb/s
Channel(s) : 2 channels
Channel layout : L R
Sampling rate : 44.1 kHz
Frame rate : 43.066 FPS (1024 SPF)
Compression mode : Lossy
Stream size : 35.0 MiB (2%)
Source stream size : 35.0 MiB (2%)
Language : English
Encoded date : UTC 2015-02-04 03:38:44
Tagged date : UTC 2015-02-04 03:38:44
mdhd_Duration : 7797865

Дополнительная информация:

Программное обеспечение: 3Ds Max
Файлы примеров: Есть

Рассматриваемые темы:

Часть 1: Набросок формы головы
Часть 2: Доработка и детализация головы
Часть 3: Набросок воротничка
Часть 4: Доработка и детализация воротничка и области шеи
Часть 5: Финальная детализация
Часть 6: Завершение создания сетки
Скриншоты:
Скачать .torrent

Чтобы скачать торрент-файл

Chung Kan - Hard Surface 3D Modeling for Production (2015)

Вам нужно Авторизоваться на сайте под своим логином. Если у Вы ещё не зарегистрированы, тогда Вам нужно пройти Регистрацию


Показать сообщения:    
Ответить на тему

Скачать Chung Kan - Hard Surface 3D Modeling for Production (2015) торрент бесплатно. Отзывы, слив складчины.

Текущее время: Сегодня 18:34

Часовой пояс: GMT + 4



Вы не можете начинать темы
Вы не можете отвечать на сообщения
Вы не можете редактировать свои сообщения
Вы не можете удалять свои сообщения
Вы не можете голосовать в опросах
Вы не можете прикреплять файлы к сообщениям
Вы не можете скачивать файлы