Chung Kan - Quick UV Mapping For Production (2015) торрент

Ответить на тему
 
Автор Сообщение

Prescious ®

Chung Kan | Quick UV Mapping For Production (2015) PCRec [EN, RU] - Автор: Chung Kan
Производство: Gumroad
Жанр: Создание видео
Описание:
В данном уроке вы узнаете, как быстро создавать готовые для производства UV развертки как в 3Ds Max, так и в Zbrush. Эти методы сократили моё время создания UV разверток на 40% при работе в профессиональной среде.
Продолжительность: 01:19:46
Качество видео: PCRec
Язык озвучки: Английский, Русский
Видео: AVC/H.264, 1640x1024, ~3650kbps
Аудио: ACC, 1 ch, 37kbps
Аудио 2: MP3, 2 ch, 128kbps (отдельным файлом)

MediaInfo:

General
Complete name : M:\[Gumroad] - Quick UV Mapping For Production by Chung Kan [ENG-RUS]\Quick_UV_Mapping_For_Production.mp4
Format : MPEG-4
Format profile : Base Media / Version 2
Codec ID : mp42 (isom/mp42)
File size : 2.06 GiB
Duration : 1 h 19 min
Overall bit rate mode : Variable
Overall bit rate : 3 691 kb/s
Movie name : Quick UV Mapping For Production by Chung Kan
Encoded date : UTC 2015-02-10 07:58:25
Tagged date : UTC 2015-02-10 07:58:25
Video
ID : 1
Format : AVC
Format/Info : Advanced Video Codec
Format profile : Baseline@L4
Format settings : 3 Ref Frames
Format settings, CABAC : No
Format settings, Reference fra : 3 frames
Format settings, GOP : M=1, N=75
Codec ID : avc1
Codec ID/Info : Advanced Video Coding
Duration : 1 h 19 min
Source duration : 1 h 19 min
Bit rate : 3 651 kb/s
Width : 1 640 pixels
Height : 1 024 pixels
Display aspect ratio : 16:10
Frame rate mode : Variable
Frame rate : 15.000 FPS
Minimum frame rate : 15.000 FPS
Maximum frame rate : 15.008 FPS
Color space : YUV
Chroma subsampling : 4:2:0
Bit depth : 8 bits
Scan type : Progressive
Bits/(Pixel*Frame) : 0.145
Stream size : 2.03 GiB (99%)
Source stream size : 2.03 GiB (99%)
Language : English
Encoded date : UTC 2015-02-10 07:58:26
Tagged date : UTC 2015-02-10 07:58:26
Color range : Limited
mdhd_Duration : 4786867
Codec configuration box : avcC
Audio
ID : 2
Format : AAC LC
Format/Info : Advanced Audio Codec Low Complexity
Codec ID : mp4a-40-2
Duration : 1 h 19 min
Source duration : 1 h 19 min
Bit rate mode : Variable
Bit rate : 37.6 kb/s
Maximum bit rate : 267 kb/s
Channel(s) : 2 channels
Channel layout : L R
Sampling rate : 44.1 kHz
Frame rate : 43.066 FPS (1024 SPF)
Compression mode : Lossy
Stream size : 21.5 MiB (1%)
Source stream size : 21.5 MiB (1%)
Language : English
Encoded date : UTC 2015-02-10 07:58:26
Tagged date : UTC 2015-02-10 07:58:26
mdhd_Duration : 4786910

Дополнительная информация:

Программное обеспечение: 3Ds Max, Zbrush
Файлы примеров: Есть
Скриншоты:
Скачать .torrent

Чтобы скачать торрент-файл

Chung Kan - Quick UV Mapping For Production (2015)

Вам нужно Авторизоваться на сайте под своим логином. Если у Вы ещё не зарегистрированы, тогда Вам нужно пройти Регистрацию


Показать сообщения:    
Ответить на тему

Скачать Chung Kan - Quick UV Mapping For Production (2015) торрент бесплатно. Отзывы, слив складчины.

Текущее время: Сегодня 11:02

Часовой пояс: GMT + 4



Вы не можете начинать темы
Вы не можете отвечать на сообщения
Вы не можете редактировать свои сообщения
Вы не можете удалять свои сообщения
Вы не можете голосовать в опросах
Вы не можете прикреплять файлы к сообщениям
Вы не можете скачивать файлы