Chung Kan - Real-Time Creation For Games Production (2015) торрент

Ответить на тему
 
Автор Сообщение

Prescious ®

Chung Kan | Real-Time Creation For Games Production (2015) PCRec [EN, RU] - Автор: Chung Kan
Производство: Gumroad
Жанр: Создание видео
Описание:
В этом уроке вы научитесь создавать низкополигональные объекты, используя методы моделирования и развертки UV, которые применяются в профессиональной среде разработки. Вы также научитесь правильно запекать карты нормалей и карты освещения с последующей их доработкой в программах CrazyBump и Photoshop.
Знание 3Ds Max и Maya предпочтительно для работы, однако эти принципы и методы могут быть также использованы и в других пакетах 3Д моделирования.
Продолжительность: 03:00:17
Качество видео: PCRec
Язык озвучки: Английский, Русский
Видео: AVC/H.264, 1364x1052, ~1767kbps
Аудио: ACC, 1 ch, 92kbps
Аудио 2: MP3, 2 ch, 37kbps (отдельным файлом)

MediaInfo:

General
Complete name : M:\[Gumroad] - Real-Time Creation For Games Production [ENG-RUS]\RealTimeA.mp4
Format : MPEG-4
Format profile : Base Media / Version 2
Codec ID : mp42 (isom/mp42)
File size : 743 MiB
Duration : 57 min 30 s
Overall bit rate mode : Variable
Overall bit rate : 1 807 kb/s
Performer : Chung Kan
Encoded date : UTC 2015-08-27 05:34:24
Tagged date : UTC 2015-08-27 05:34:24
Video
ID : 1
Format : AVC
Format/Info : Advanced Video Codec
Format profile : Baseline@L4
Format settings : 3 Ref Frames
Format settings, CABAC : No
Format settings, Reference fra : 3 frames
Format settings, GOP : M=1, N=75
Codec ID : avc1
Codec ID/Info : Advanced Video Coding
Duration : 57 min 30 s
Source duration : 57 min 30 s
Bit rate : 1 767 kb/s
Width : 1 364 pixels
Height : 1 052 pixels
Display aspect ratio : 1.297
Frame rate mode : Variable
Frame rate : 15.000 FPS
Minimum frame rate : 15.000 FPS
Maximum frame rate : 15.008 FPS
Color space : YUV
Chroma subsampling : 4:2:0
Bit depth : 8 bits
Scan type : Progressive
Bits/(Pixel*Frame) : 0.082
Stream size : 727 MiB (98%)
Source stream size : 727 MiB (98%)
Language : English
Encoded date : UTC 2015-08-27 05:34:24
Tagged date : UTC 2015-08-27 05:34:24
Color range : Limited
mdhd_Duration : 3450067
Codec configuration box : avcC
Audio
ID : 2
Format : AAC LC
Format/Info : Advanced Audio Codec Low Complexity
Codec ID : mp4a-40-2
Duration : 57 min 30 s
Source duration : 57 min 30 s
Bit rate mode : Variable
Bit rate : 37.6 kb/s
Maximum bit rate : 56.2 kb/s
Channel(s) : 2 channels
Channel layout : L R
Sampling rate : 44.1 kHz
Frame rate : 43.066 FPS (1024 SPF)
Compression mode : Lossy
Stream size : 15.5 MiB (2%)
Source stream size : 15.5 MiB (2%)
Language : English
Encoded date : UTC 2015-08-27 05:34:24
Tagged date : UTC 2015-08-27 05:34:24
mdhd_Duration : 3450068

Дополнительная информация:

Программное обеспечение: 3Ds Max, Crazybump, Photoshop, Maya, Zbrush
Файлы примеров: Есть

Рассматриваемые темы:

Создание низкополигональной модели в Maya
UV развертка в Zbrush и 3Ds Max
Запекание карт в 3Ds Max
Извлечение карт в Crazybump
Доработка карт в Photoshop
Просмотр результатов в реальном времени во вьюпорте 3Ds Max
Скриншоты:
Скачать .torrent

Чтобы скачать торрент-файл

Chung Kan - Real-Time Creation For Games Production (2015)

Вам нужно Авторизоваться на сайте под своим логином. Если у Вы ещё не зарегистрированы, тогда Вам нужно пройти Регистрацию


Показать сообщения:    
Ответить на тему

Скачать Chung Kan - Real-Time Creation For Games Production (2015) торрент бесплатно. Отзывы, слив складчины.

Текущее время: Сегодня 14:28

Часовой пояс: GMT + 4



Вы не можете начинать темы
Вы не можете отвечать на сообщения
Вы не можете редактировать свои сообщения
Вы не можете удалять свои сообщения
Вы не можете голосовать в опросах
Вы не можете прикреплять файлы к сообщениям
Вы не можете скачивать файлы