Александр Залогин - Продажи физических товаров с нуля (2014) торрент

Ответить на тему
 
Автор Сообщение

Prescious ®

Александр Залогин | Продажи физических товаров с нуля (2014) PCRec - Автор: Александр Залогин
Жанр: Видеокурсы
Описание:
В этом тренинге, я подробно расскажу первые 50 шагов, которые позволят вам:
  • Выбрать модель продаж: полноценный интернет-магазин или простой одностраничник
  • Выбрать нишу
  • Хорошо разобраться в ней
  • Создать продающий сайт
  • Правильно разместить на нем информацию
  • Получить первые заказы БЕСПЛАТНЫМИ способами
  • Запустить первую рекламную кампанию (контекстная реклама, тизерная реклама или таргетированная реклама Вконтакте)
  • Найти поставщика
  • Проверить поставщика на добропорядочность
  • Закупить первую партию товара
  • "Прозвонить" клиентов
  • Упаковать и отправить первые товары

Продолжение описания:

  • Забрать первые деньги из своего товарного бизнеса
  • Запустить вирусный маркетинг (чтобы люди сами рассказывали о вас)
  • Официально оформить Ваш бизнес
  • Нанять первых сотрудников (в офис или удаленно)
  • Создать прочный фундамент для дальнейшего взлета
Бонус:
Интернет-магазин с нуля
Продолжительность: 07:06:09
Качество видео: PCRec
Видео: AVC/H.264, 1440x900, ~1213 kbps
Аудио: AAC, 2 ch, 236 kbps

MediaInfo:

General
Complete name : E:\Upload\Медиаматериалы\Продажи физических товаров с нуля\Кастомарафон _Продажи физических товаров с нуля_\Часть 5.mp4
Format : MPEG-4
Format profile : Base Media / Version 2
Codec ID : mp42 (mp42/isom)
File size : 1.03 GiB
Duration : 1 h 41 min
Overall bit rate mode : Variable
Overall bit rate : 1 453 kb/s
Encoded date : UTC 2014-03-08 20:04:14
Tagged date : UTC 2014-03-08 21:49:27
Video
ID : 1
Format : AVC
Format/Info : Advanced Video Codec
Format profile : Main@L4
Format settings, CABAC : Yes
Format settings, ReFrames : 5 frames
Codec ID : avc1
Codec ID/Info : Advanced Video Coding
Duration : 1 h 41 min
Bit rate : 1 213 kb/s
Width : 1 440 pixels
Height : 900 pixels
Display aspect ratio : 16:10
Frame rate mode : Constant
Frame rate : 30.000 FPS
Color space : YUV
Chroma subsampling : 4:2:0
Bit depth : 8 bits
Scan type : Progressive
Bits/(Pixel*Frame) : 0.031
Stream size : 880 MiB (83%)
Encoded date : UTC 2014-03-08 20:04:14
Tagged date : UTC 2014-03-08 21:49:27
Color primaries : BT.709
Transfer characteristics : BT.709
Matrix coefficients : BT.709
Audio
ID : 2
Format : AAC
Format/Info : Advanced Audio Codec
Format profile : LC
Codec ID : 40
Duration : 1 h 41 min
Bit rate mode : Variable
Bit rate : 236 kb/s
Maximum bit rate : 374 kb/s
Channel(s) : 2 channels
Channel positions : Front: L R
Sampling rate : 44.1 kHz
Frame rate : 43.066 FPS (1024 spf)
Compression mode : Lossy
Stream size : 171 MiB (16%)
Encoded date : UTC 2014-03-08 20:04:14
Tagged date : UTC 2014-03-08 20:11:19
Скриншоты:
Скачать .torrent

Чтобы скачать торрент-файл

Александр Залогин - Продажи физических товаров с нуля (2014)

Вам нужно Авторизоваться на сайте под своим логином. Если у Вы ещё не зарегистрированы, тогда Вам нужно пройти Регистрацию


Показать сообщения:    
Ответить на тему

Скачать Александр Залогин - Продажи физических товаров с нуля (2014) торрент бесплатно. Отзывы, слив складчины.

Текущее время: Сегодня 18:29

Часовой пояс: GMT + 4



Вы не можете начинать темы
Вы не можете отвечать на сообщения
Вы не можете редактировать свои сообщения
Вы не можете удалять свои сообщения
Вы не можете голосовать в опросах
Вы не можете прикреплять файлы к сообщениям
Вы не можете скачивать файлы