Андрей Бер - КриптоМир 2-х дневный Воркшоп (2017) торрент

Ответить на тему
 
Автор Сообщение

Prescious ®

Андрей Бер | КриптоМир 2-х дневный Воркшоп (2017) PCRec - Автор: Андрей Бер
Жанр: Бизнес, криптовалюты
Описание:
Криптомир Воркшоп - Биткоин, Эфириум, Лайткоин и другие криптовалюты – как заработать в сегодняшних реалиях?
На занятиях мы разберем:
* Что такое криптовалюта и как на этом заработать;
* Как работает технология блокчейн и что она может вам дать;
* Виды и различия криптовалют;
* Что выгодней: биткоин или альткоин;
* Стоимость криптовалют и как выгодно ее менять и т.д.
Продолжительность: 06:29:07
Качество видео: PCRec
Видео: AVC/H.264, 1280x720, ~106 Kbps
Аудио: AAC, 2 ch, 138 Kbps

MediaInfo:

General
Complete name : E:\Upload\Медиаматериалы\КриптоМир 2-х дневный Воркшоп\Криптомир. Workshop. День 1. Часть 2.mp4
Format : MPEG-4
Format profile : Base Media
Codec ID : isom (isom/iso2/avc1/mp41)
File size : 109 MiB
Duration : 1 h 0 min
Overall bit rate : 252 kb/s
Writing application : Lavf57.21.100
Video
ID : 1
Format : AVC
Format/Info : Advanced Video Codec
Format profile : High@L3.1
Format settings, CABAC : Yes
Format settings, ReFrames : 4 frames
Codec ID : avc1
Codec ID/Info : Advanced Video Coding
Duration : 1 h 0 min
Bit rate : 106 kb/s
Width : 1 280 pixels
Height : 720 pixels
Display aspect ratio : 16:9
Frame rate mode : Constant
Frame rate : 30.000 FPS
Color space : YUV
Chroma subsampling : 4:2:0
Bit depth : 8 bits
Scan type : Progressive
Bits/(Pixel*Frame) : 0.004
Stream size : 45.7 MiB (42%)
Writing library : x264 core 148 r2638 7599210
Encoding settings : cabac=1 / ref=3 / deblock=1:0:0 / analyse=0x3:0x113 / me=hex / subme=7 / psy=1 / psy_rd=1.00:0.00 / mixed_ref=1 / me_range=16 / chroma_me=1 / trellis=1 / 8x8dct=1 / cqm=0 / deadzone=21,11 / fast_pskip=1 / chroma_qp_offset=-2 / threads=6 / lookahead_threads=1 / sliced_threads=0 / nr=0 / decimate=1 / interlaced=0 / bluray_compat=0 / constrained_intra=0 / bframes=3 / b_pyramid=2 / b_adapt=1 / b_bias=0 / direct=1 / weightb=1 / open_gop=0 / weightp=2 / keyint=250 / keyint_min=25 / scenecut=40 / intra_refresh=0 / rc_lookahead=40 / rc=crf / mbtree=1 / crf=23.0 / qcomp=0.60 / qpmin=0 / qpmax=69 / qpstep=4 / ip_ratio=1.40 / aq=1:1.00
Audio
ID : 2
Format : AAC
Format/Info : Advanced Audio Codec
Format profile : LC
Codec ID : 40
Duration : 1 h 0 min
Bit rate mode : Constant
Bit rate : 138 kb/s
Channel(s) : 2 channels
Channel(s)_Original : 1 channel
Channel positions : Front: C
Sampling rate : 44.1 kHz
Frame rate : 43.066 FPS (1024 spf)
Compression mode : Lossy
Stream size : 59.5 MiB (55%)
Default : Yes
Alternate group : 1
Скриншоты:
Скачать .torrent

Чтобы скачать торрент-файл

Андрей Бер - КриптоМир 2-х дневный Воркшоп (2017)

Вам нужно Авторизоваться на сайте под своим логином. Если у Вы ещё не зарегистрированы, тогда Вам нужно пройти Регистрацию


Показать сообщения:    
Ответить на тему

Скачать Андрей Бер - КриптоМир 2-х дневный Воркшоп (2017) торрент бесплатно. Отзывы, слив складчины.

Текущее время: Сегодня 19:01

Часовой пояс: GMT + 4



Вы не можете начинать темы
Вы не можете отвечать на сообщения
Вы не можете редактировать свои сообщения
Вы не можете удалять свои сообщения
Вы не можете голосовать в опросах
Вы не можете прикреплять файлы к сообщениям
Вы не можете скачивать файлы