Алексей Карамазов - Как "сколотить состояние" на ICO, имея в кармане меньше 10.000 рублей? (2017) торрент

Ответить на тему
 
Автор Сообщение

Prescious ®

Алексей Карамазов | Как "сколотить состояние" на ICO, имея в кармане меньше 10.000 рублей? (2017) PCRec- Автор: Алексей Карамазов
Жанр: Бизнес
Описание:
Рождение криптоэкономики открывает потрясающие перспективы для инвестиций. Но только для тех, кто знает, как действовать.
Что необходимо, чтобы начать инвестировать в ICO?
  • Немного времени. Чтобы изучить основы анализа потенциала проекта и выбрать его из десятков, которые выходят на ICO ежемесячно.
  • ПК и Интернет. Вы можете ограничиться смартфоном или планшетом, но я рекомендую работать с ПК.
  • Начальный капитал. Вы можете начать и с 1000 рублей, но комфортнее будет, если у вас будет в распоряжении от 10.000 рублей и более
  • Участие в Initial Coin Offering (ICO) это сложно? Совсем нет.
  • Ищем и анализируем blockchain-startup. Опираясь на мнение экспертов и самостоятельно анализируя проект по ключевым пунктам Вы принимаете решение участвовать.
  • Создаем криптокошельки для участия. По шагам создаем надежные кошельки для криптовалюты ethereum и пополняем их, меняя рубли на эфиры
  • Дожидаемся начала ICO. Отправляем эфир на кошелек проекта, получая взамен токены. Готово! Ждем выхода на биржи, чтобы продать в 2-5-10 раз дороже.
Продолжительность: 04:00:00
Качество видео: PCRec
Видео: AVC/H.264, 1152x720, ~308 Kbps
Аудио: AAC, 2 ch, 128 kbps

MediaInfo:

General
Complete name : E:\Upload\Медиаматериалы\Как сколотить состояние на ICO (2017)\Как изменить жизнь с помощью ICO Часть 1..mp4
Format : MPEG-4
Format profile : Base Media
Codec ID : isom (isom/iso2/avc1/mp41)
File size : 256 MiB
Duration : 1 h 32 min
Overall bit rate mode : Variable
Overall bit rate : 386 kb/s
Writing application : Lavf57.71.100
Video
ID : 1
Format : AVC
Format/Info : Advanced Video Codec
Format profile : High@L3.1
Format settings, CABAC : Yes
Format settings, ReFrames : 4 frames
Codec ID : avc1
Codec ID/Info : Advanced Video Coding
Duration : 1 h 32 min
Bit rate : 308 kb/s
Width : 1 152 pixels
Height : 720 pixels
Display aspect ratio : 16:10
Frame rate mode : Constant
Frame rate : 30.000 FPS
Color space : YUV
Chroma subsampling : 4:2:0
Bit depth : 8 bits
Scan type : Progressive
Bits/(Pixel*Frame) : 0.012
Stream size : 204 MiB (80%)
Writing library : x264 core 146 r2555 0c21480
Audio
ID : 2
Format : AAC
Format/Info : Advanced Audio Codec
Format profile : LC
Codec ID : 40
Duration : 1 h 32 min
Bit rate mode : Variable
Bit rate : 70.0 kb/s
Maximum bit rate : 128 kb/s
Channel(s) : 2 channels
Channel positions : Front: L R
Sampling rate : 44.1 kHz
Frame rate : 43.066 FPS (1024 spf)
Compression mode : Lossy
Stream size : 46.4 MiB (18%)
Language : unk
Default : Yes
Alternate group : 1
Скриншоты:
Скачать .torrent

Чтобы скачать торрент-файл

Алексей Карамазов - Как "сколотить состояние" на ICO, имея в кармане меньше 10.000 рублей? (2017)

Вам нужно Авторизоваться на сайте под своим логином. Если у Вы ещё не зарегистрированы, тогда Вам нужно пройти Регистрацию


Показать сообщения:    
Ответить на тему

Скачать Алексей Карамазов - Как "сколотить состояние" на ICO, имея в кармане меньше 10.000 рублей? (2017) торрент бесплатно. Отзывы, слив складчины.

Текущее время: Сегодня 20:23

Часовой пояс: GMT + 4



Вы не можете начинать темы
Вы не можете отвечать на сообщения
Вы не можете редактировать свои сообщения
Вы не можете удалять свои сообщения
Вы не можете голосовать в опросах
Вы не можете прикреплять файлы к сообщениям
Вы не можете скачивать файлы