Егор Андросов - Криптотрейдинг от практика (2017) торрент

Ответить на тему
 
Автор Сообщение

Prescious ®

Егор Андросов | Криптотрейдинг от практика (2017) PCRec- Автор: Егор Андросов
Жанр: Криптовалюты
Описание:
Криптотрейдинг: Торги на криптобирже Bittrex – целый комплекс операций c учениками.
Продолжительность: 26:00:00
Качество видео: PCRec
Видео: AVC/H.264, 1280x720-1612x1096, ~2228 Kbps
Аудио: AAC, 2 ch, 320 Kbps

MediaInfo:

General
Format : MPEG-4
Format profile : Base Media
Codec ID : isom (isom/iso2/avc1/mp41)
File size : 265 MiB
Duration : 1 h 41 min
Overall bit rate : 366 kb/s
Writing application : XviD4PSP 7.0.408 DAILY
encoding_info : MOV > MP4 / H264 > X264 CRF 25.0 HQ / AAC-LC > MP3 CBR 320kbps HQ
Video
ID : 1
Format : AVC
Format/Info : Advanced Video Codec
Format profile : High@L3.1
Format settings, CABAC : Yes
Format settings, ReFrames : 4 frames
Codec ID : avc1
Codec ID/Info : Advanced Video Coding
Duration : 1 h 41 min
Bit rate : 33.2 kb/s
Width : 456 pixels
Height : 464 pixels
Display aspect ratio : 0.983
Frame rate mode : Constant
Frame rate : 59.940 (60000/1001) FPS
Color space : YUV
Chroma subsampling : 4:2:0
Bit depth : 8 bits
Scan type : Progressive
Bits/(Pixel*Frame) : 0.003
Stream size : 24.0 MiB (9%)
Writing library : x264 core 152 r2851M ba24899
Color range : Limited
Color primaries : BT.709
Transfer characteristics : BT.709
Matrix coefficients : BT.709
Audio
ID : 2
Format : MPEG Audio
Format version : Version 1
Format profile : Layer 3
Mode : Joint stereo
Mode extension : MS Stereo
Codec ID : 6B
Bit rate mode : Constant
Bit rate : 320 kb/s
Channel(s) : 2 channels
Sampling rate : 44.1 kHz
Compression mode : Lossy
Stream size : 232 MiB (88%)
Writing library : LAME3.99.5
Default : Yes
Alternate group : 1
Скриншоты:
Скачать .torrent

Чтобы скачать торрент-файл

Егор Андросов - Криптотрейдинг от практика (2017)

Вам нужно Авторизоваться на сайте под своим логином. Если у Вы ещё не зарегистрированы, тогда Вам нужно пройти Регистрацию


Показать сообщения:    
Ответить на тему

Скачать Егор Андросов - Криптотрейдинг от практика (2017) торрент бесплатно. Отзывы, слив складчины.

Текущее время: Сегодня 15:07

Часовой пояс: GMT + 4



Вы не можете начинать темы
Вы не можете отвечать на сообщения
Вы не можете редактировать свои сообщения
Вы не можете удалять свои сообщения
Вы не можете голосовать в опросах
Вы не можете прикреплять файлы к сообщениям
Вы не можете скачивать файлы