Дмитрий Карпиловский - Криптобизнес 2.0 (2017) торрент

Ответить на тему
 
Автор Сообщение

Prescious ®

Дмитрий Карпиловский | Криптобизнес 2.0 (2017) WEBRip - Автор: Дмитрий Карпиловский
Жанр: Видеокурсы
Описание:
Курс для осторожных предпринимателей, которые хотят не просто разобраться в криптовалютах, а создать прибыльный долгосрочный бизнес в этой сфере.
Как создать бизнес на растущем тренде рынка криптовалют, используя легальные и наименее рисковые стратегии
Для кого “Base”:
Для тех кто пришел получать быстрые результаты - ПОЛУЧИТЬ РЕЗУЛЬТАТ;
Если по окончанию курса планирует инвестировать от 3000-5000 долларов;
Самое главное в этом пакете - это получить ВЕСЬ инструментарий, который даст быстрый результат;
Если вы хотите в течение курса уже начать закупать оборудование, сделать инвестиционный портфель и начать активную работу.
План занятий:
1 вводное стартовое занятие
Модуль Основы (экосистема, риски, перспективы, ценность, мифы, ресурсы)
Модуль Криптовалюты - разбор, стратегии, ценообразование, прогнозы, ввод-вывод, обмен, хранение
Модуль Майнинг на ASIC и GPU в малых и средних масштабах (до 30 kW)

Продолжение описания:

Модуль ICO и токены как инвестиция/спекуляция
МК Реальный бизнес и заработок без инвестиций
Модуль Реальный бизнес и заработок без инвестиций
4 Q&A длительностью 1-2 часа по мере возникновения вопросов
Модуль Майнинг в промышленных масштабах
Модуль Рыночно-нейтральные стратегии / Инструменты хеджирования
Модуль Криптофонды, хедж фонды
Модуль финансовый учёт, планирование, транзакции
Модуль юридическая специфика
Составление готового портфеля криптовалют для разных стратегий
Спецусловия доступа к датацентрам, фондам, поставщикам
Информирование о наших сделках с возможностью соинвестирования
Curated content новости, аналитика, how-to
Продолжительность: 44:00:00
Качество видео: WEBRip
Язык озвучки: Русский
Видео: AVC/H.264, 1280x720, ~217 Kbps
Аудио: AAC, 2 ch, 126 Kbps

MediaInfo:

General
Complete name : E:\Upload\Медиаматериалы\Криптобизнес 2.0\1\3_Занятие №1 МК Основы (экосистема, риски, перспектива, ценности, мифы, ресурсы)\Занятие.MP4
Format : MPEG-4
Format profile : Base Media / Version 2
Codec ID : mp42 (isom/mp42)
File size : 425 MiB
Duration : 3 h 44 min
Overall bit rate mode : Variable
Overall bit rate : 265 kb/s
Encoded date : UTC 2017-11-02 14:23:28
Tagged date : UTC 2017-11-02 14:23:28
gsst : 0
gstd : 13470801
Video
ID : 1
Format : AVC
Format/Info : Advanced Video Codec
Format profile : Main@L3.1
Format settings, CABAC : Yes
Format settings, ReFrames : 3 frames
Codec ID : avc1
Codec ID/Info : Advanced Video Coding
Duration : 3 h 44 min
Bit rate : 135 kb/s
Width : 1 280 pixels
Height : 720 pixels
Display aspect ratio : 16:9
Frame rate mode : Constant
Frame rate : 30.000 FPS
Color space : YUV
Chroma subsampling : 4:2:0
Bit depth : 8 bits
Scan type : Progressive
Bits/(Pixel*Frame) : 0.005
Stream size : 218 MiB (51%)
Title : ISO Media file produced by Google Inc. Created on: 11/02/2017.
Encoded date : UTC 2017-11-02 14:23:28
Tagged date : UTC 2017-11-02 14:23:28
Color range : Limited
Color primaries : BT.709
Transfer characteristics : BT.709
Matrix coefficients : BT.709
Audio
ID : 2
Format : AAC
Format/Info : Advanced Audio Codec
Format profile : LC
Codec ID : 40
Duration : 3 h 44 min
Source duration : 3 h 44 min
Bit rate mode : Variable
Bit rate : 126 kb/s
Channel(s) : 2 channels
Channel positions : Front: L R
Sampling rate : 44.1 kHz
Frame rate : 43.066 FPS (1024 spf)
Compression mode : Lossy
Stream size : 202 MiB (47%)
Source stream size : 202 MiB (47%)
Title : ISO Media file produced by Google Inc. Created on: 11/02/2017.
Encoded date : UTC 2017-11-02 14:23:28
Tagged date : UTC 2017-11-02 14:23:28
Скриншоты:

Дополнительные скриншоты:

Скачать .torrent

Чтобы скачать торрент-файл

Дмитрий Карпиловский - Криптобизнес 2.0 (2017)

Вам нужно Авторизоваться на сайте под своим логином. Если у Вы ещё не зарегистрированы, тогда Вам нужно пройти Регистрацию


Показать сообщения:    
Ответить на тему

Скачать Дмитрий Карпиловский - Криптобизнес 2.0 (2017) торрент бесплатно. Отзывы, слив складчины.

Текущее время: Сегодня 04:58

Часовой пояс: GMT + 4



Вы не можете начинать темы
Вы не можете отвечать на сообщения
Вы не можете редактировать свои сообщения
Вы не можете удалять свои сообщения
Вы не можете голосовать в опросах
Вы не можете прикреплять файлы к сообщениям
Вы не можете скачивать файлы