English For IT, Анна Гандрабура - Английский для технических специалистов в IT - English For Tech (2020) торрент

Ответить на тему
 
Автор Сообщение

Prescious ®

English For IT, Анна Гандрабура | Английский для технических специалистов в IT | English For Tech (2020) PCRec [En, Ru]- Автор: Анна Гандрабура
Производство: English For IT
Жанр: Английский язык
Описание:
На курсе вы:
  • увеличите словарный запас;
  • улучшите основные навыки коммуникации для работы: chatting, making presentations, answering the questions at a standup meeting, etc;
  • проработаете основные грамматические темы, которые нужны для коммуникации с клиентами;
  • уберете разговорный барьер;
  • научитесь правильно произносить слова и выражения;
  • поработаете над акцентом и интонацией.

Программа курса

Курс состоит из 10 вебинаров, каждый вебинар состоит из 5 частей: topic+vocabulary, grammar, soft skills, pronunciation & speaking/writing.
1. New Jobs in Tech
Grammar: Present Tenses
Soft skills focus: How to talk about yourself and what you do
Pronunciation: How to pronounce top tech jobs in English correctly
Speaking: Pitching yourself
2. Startup World
Grammar: Past Simple vs Present Perfect
Soft skills focus: How to pitch your idea or your company (elevator pitch)
Pronunciation: Intonation
Speaking: Presenting your pitch
3. Programming Languages
Grammar: Comparatives and Superlatives
Soft skills focus: Effective communication in Jira, GitHub, etc.
Pronunciation: How to correctly pronounce programming languages in English
Speaking: Talking about pros and cons, comparing things
4. Version Control Systems
Grammar: Countable & Uncountable Nouns
Soft skills focus: Top soft skills you need to go up the career ladder
Pronunciation: Top commonly mispronounced tech words (part 1)
Speaking: Talking about your latest task. What have you done?
5. Software Testing
Grammar: Passive Voice
Soft skills focus: How to talk about bad news or failures
Pronunciation: Top commonly mispronounced tech words (part 2)
Speaking: Describing the testing process that needed to be performed
6. Trending Technology
Grammar: Will (Future Simple) vs Be going to
Soft skills focus: How to create a good LinkedIn profile in English
Pronunciation: How to pronounce verbs with -ed ending
Speaking: Answering job interview questions about your future plans
7. Software Development Cycle
Grammar: Modals (can/could/should/have to/must)
Soft skills focus: How to take part in a standup meeting
Pronunciation: Common Technologies
Speaking: Answering the questions at a standup meeting
8. Rules of Chatting in Tech
Grammar: Bad grammar for chatting
Soft skills focus: How to use and say common abbreviations and acronyms
Pronunciation: Words with weird pronunciation
Writing: Chat away
9. Mentorship
Grammar: Making requests
Soft skills focus: Top tips to progress in your career
General: Common Mistakes that non-native speakers make
10. Job interview & CV writing
Grammar: Adjectives and Adverbs (good examples for CV)
Soft skills focus: Small talk
Pronunciation: phrasal verbs/ work-related idioms
Writing: CV
Speaking: Job Interview
Продолжительность: 20:55:07
Качество видео: PCRec
Язык озвучки: Русский, Английский (обучение)
Видео: AVC/H.264, 1920x1030, ~329 Kbps
Аудио: AAC, 1 ch, 53,4 Kbps

MediaInfo:

Общее
Полное имя : O:\[Анна Гандрабура] English For Tech (2020)\05 Trending Technology.mp4
Формат : MPEG-4
Профиль формата : Base Media
Идентификатор кодека : isom (isom/iso2/avc1/mp41)
Размер файла : 325 Мбайт
Продолжительность : 1 ч. 57 м.
Общий поток : 388 Кбит/сек
Программа кодирования : Lavf58.48.100
Обложка : Yes
Видео
Идентификатор : 2
Формат : AVC
Формат/Информация : Advanced Video Codec
Профиль формата : High@L5
Настройки формата : CABAC / 11 Ref Frames
Параметр CABAC формата : Да
Параметр RefFrames формата : 11 кадров
Режим смешивания : Container profile=High@3.1
Идентификатор кодека : avc1
Идентификатор кодека/Информация : Advanced Video Coding
Продолжительность : 1 ч. 57 м.
Битрейт : 329 Кбит/сек
Ширина : 1 920 пикселей
Высота : 1 030 пикселей
Соотношение сторон : 1,85:1
Режим частоты кадров : Постоянный
Частота кадров : 25,000 кадров/сек
Цветовое пространство : YUV
Субдискретизация насыщенности : 4:2:0
Битовая глубина : 8 бит
Тип развёртки : Прогрессивная
Бит/(Пиксели*Кадры) : 0.007
Размер потока : 276 Мбайт (85%)
Заголовок : H.264/AVC video
Menus : 5
Codec configuration box : avcC
Аудио
Идентификатор : 1
Формат : AAC LC
Формат/Информация : Advanced Audio Codec Low Complexity
Идентификатор кодека : mp4a-40-2
Продолжительность : 1 ч. 57 м.
Вид битрейта : Постоянный
Битрейт : 53,4 Кбит/сек
Каналы : 1 канал
Channel layout : C
Частота : 32,0 КГц
Частота кадров : 31,250 кадров/сек (1024 SPF)
Метод сжатия : С потерями
Размер потока : 44,7 Мбайт (14%)
Заголовок : AAC audio
Default : Да
Alternate group : 1
Menus : 5
Прочее
Тип : meta
Продолжительность : 1 ч. 57 м.
Вид битрейта : Переменный
Default : Нет
Menus : 5
Duration_FirstFrame : -5657800
Duration_LastFrame : -6337240
Меню #1
Идентификатор : 5
Идентификатор кодека : text
Продолжительность : 1 ч. 57 м.
Язык : English
Menu For : 1,2,3
Duration_FirstFrame : -5657800
Duration_LastFrame : -6337240
00:00:00.000 : Recording Started
00:11:23.640 : Sharing Started
01:57:05.080 : Sharing Stopped
Меню #2
00:00:00.000 : Recording Started
00:11:23.640 : Sharing Started
01:57:05.080 : Sharing Stopped
Скриншоты:
Скачать .torrent

Чтобы скачать торрент-файл

English For IT, Анна Гандрабура - Английский для технических специалистов в IT - English For Tech (2020)

Вам нужно Авторизоваться на сайте под своим логином. Если у Вы ещё не зарегистрированы, тогда Вам нужно пройти Регистрацию


Показать сообщения:    
Ответить на тему

Скачать English For IT, Анна Гандрабура - Английский для технических специалистов в IT - English For Tech (2020) торрент бесплатно. Отзывы, слив складчины.

Текущее время: Сегодня 14:09

Часовой пояс: GMT + 4



Вы не можете начинать темы
Вы не можете отвечать на сообщения
Вы не можете редактировать свои сообщения
Вы не можете удалять свои сообщения
Вы не можете голосовать в опросах
Вы не можете прикреплять файлы к сообщениям
Вы не можете скачивать файлы