ItGid, Лущенко Александр - ООП в JS (2020) торрент

Ответить на тему
 
Автор Сообщение

Prescious ®

ItGid, Лущенко Александр | ООП в JS (2020) PCRec - Автор: Лущенко Александр
Производство: ItGid
Жанр: Программирование
Описание:
Обьектно-ориентированне программирование в рамках языка JavaScript. Изучаем понятие классов, объектов, геттеров и сеттеров, методов и свойств. Применяем ООП на примерах DOM в JS. Изучаем this, контекст, способы изменения контекста. Курс содержит 2 проекта - разработка корзины интернет магазина ( товары, сумма, отрисовка корзины) и создание виджета gridView, который принимает данные в виде объекта и отрисовывает на странице таблицу с фильтрами.
Продолжительность: 05:47:00
Качество видео: PCRec
Видео: AVC/H.264, 1280х720, ~158 Kbps
Аудио: AAC, 2 ch, 128 Kbps

MediaInfo:

Общее
Полное имя : D:\nnm\[Itgid] [Александр Лущенко] ООП в JS (2020)\unit3\ООП в JavaScript 03. Классы, свойства, методы (720p).mp4
Формат : MPEG-4
Профиль формата : Base Media / Version 2
Идентификатор кодека : mp42 (isom/mp42)
Размер файла : 60,0 Мбайт
Продолжительность : 29 м. 1 с.
Режим общего битрейта : Переменный
Общий поток : 289 Кбит/сек
Дата кодирования : UTC 2020-03-02 05:01:26
Дата пометки : UTC 2020-03-02 05:01:26
gsst : 0
gstd : 1741171
Видео
Идентификатор : 1
Формат : AVC
Формат/Информация : Advanced Video Codec
Профиль формата : Main@L3.1
Настройки формата : CABAC / 3 Ref Frames
Параметр CABAC формата : Да
Параметр RefFrames формата : 3 кадра
Идентификатор кодека : avc1
Идентификатор кодека/Информация : Advanced Video Coding
Продолжительность : 29 м. 1 с.
Битрейт : 158 Кбит/сек
Ширина : 1 280 пикселей
Высота : 720 пикселей
Соотношение сторон : 16:9
Режим частоты кадров : Постоянный
Частота кадров : 29,970 (30000/1001) кадров/сек
Цветовое пространство : YUV
Субдискретизация насыщенности : 4:2:0
Битовая глубина : 8 бит
Тип развёртки : Прогрессивная
Бит/(Пиксели*Кадры) : 0.006
Размер потока : 32,7 Мбайт (55%)
Заголовок : ISO Media file produced by Google Inc. Created on: 03/01/2020.
Дата кодирования : UTC 2020-03-02 05:01:26
Дата пометки : UTC 2020-03-02 05:01:26
Цветовой диапазон : Limited
Основные цвета : BT.709
Характеристики трансфера : BT.709
Коэффициенты матрицы : BT.709
Codec configuration box : avcC
Аудио
Идентификатор : 2
Формат : AAC LC
Формат/Информация : Advanced Audio Codec Low Complexity
Идентификатор кодека : mp4a-40-2
Продолжительность : 29 м. 1 с.
Вид битрейта : Переменный
Битрейт : 128 Кбит/сек
Каналы : 2 канала
Channel layout : L R
Частота : 44,1 КГц
Частота кадров : 43,066 кадра/сек (1024 SPF)
Метод сжатия : С потерями
Размер потока : 26,6 Мбайт (44%)
Заголовок : ISO Media file produced by Google Inc. Created on: 03/01/2020.
Дата кодирования : UTC 2020-03-02 05:01:26
Дата пометки : UTC 2020-03-02 05:01:26
Скриншоты:
Скачать .torrent

Чтобы скачать торрент-файл

ItGid, Лущенко Александр - ООП в JS (2020)

Вам нужно Авторизоваться на сайте под своим логином. Если у Вы ещё не зарегистрированы, тогда Вам нужно пройти Регистрацию


Показать сообщения:    
Ответить на тему

Скачать ItGid, Лущенко Александр - ООП в JS (2020) торрент бесплатно. Отзывы, слив складчины.

Текущее время: Сегодня 23:36

Часовой пояс: GMT + 4



Вы не можете начинать темы
Вы не можете отвечать на сообщения
Вы не можете редактировать свои сообщения
Вы не можете удалять свои сообщения
Вы не можете голосовать в опросах
Вы не можете прикреплять файлы к сообщениям
Вы не можете скачивать файлы