XYZ School, Женя Пак - Hard Surface (2020) торрент

Ответить на тему
 
Автор Сообщение

Prescious ®

XYZ School, Женя Пак | Hard Surface (2020) HDTVRip - Автор: Женя Пак
Производство: XYZ School
Жанр: 3d графика
Описание:
Мы будем придумывать и моделить с нуля 3D концепты Sci-Fi пушек, мин, гранат, турелей и много другого.
Когда нужно разобрать новую тему, мы будем начинать с теории и референсов, а затем будем открывать сцену и моделить с нуля. На каждом этапе преподаватель будет объяснять, почему сделано именно так.
Мы не будем думать о топологии и дальнейших этапах пайплайна, нас интересуют принципы
Продолжительность: 75:45:37
Качество видео: HDTVRip
Видео: AVC/H.264, 720x1280 - 1080x1920, 30fps, ~678 Кбит/сек
Аудио: AAC, 2 ch, 253 Кбит/сек

MediaInfo:

олное имя                               : E:\Курсы\[XYZ School]  Hard Surface\1 Soft Block\SoftBlock 1 ZBrush\HS 1 SoftBlock Zbrush 6.mp4
Формат : MPEG-4
Профиль формата : Base Media / Version 2
Идентификатор кодека : mp42 (mp42/mp41/isom/avc1)
Размер файла : 88,9 Мбайт
Продолжительность : 13 м. 16 с.
Режим общего битрейта : Переменный
Общий поток : 936 Кбит/сек
Дата кодирования : UTC 2020-06-19 15:16:29
Дата пометки : UTC 2020-06-19 15:16:29
Видео
Идентификатор : 1
Формат : AVC
Формат/Информация : Advanced Video Codec
Профиль формата : High@L3.2
Настройки формата : CABAC / 5 Ref Frames
Параметр CABAC формата : Да
Параметр RefFrames формата : 5 кадров
Идентификатор кодека : avc1
Идентификатор кодека/Информация : Advanced Video Coding
Продолжительность : 13 м. 16 с.
Битрейт : 678 Кбит/сек
Ширина : 1 280 пикселей
Высота : 720 пикселей
Соотношение сторон : 16:9
Режим частоты кадров : Постоянный
Частота кадров : 30,000 кадров/сек
Цветовое пространство : YUV
Субдискретизация насыщенности : 4:2:0
Битовая глубина : 8 бит
Тип развёртки : Прогрессивная
Бит/(Пиксели*Кадры) : 0.025
Размер потока : 64,4 Мбайт (72%)
Библиотека кодирования : x264 core 160 r10 22fcbe1
Настройки программы : cabac=1 / ref=5 / deblock=1:0:0 / analyse=0x3:0x113 / me=hex / subme=8 / psy=1 / psy_rd=1.00:0.00 / mixed_ref=1 / me_range=16 / chroma_me=1 / trellis=2 / 8x8dct=1 / cqm=0 / deadzone=21,11 / fast_pskip=1 / chroma_qp_offset=-2 / threads=22 / lookahead_threads=3 / sliced_threads=0 / nr=0 / decimate=1 / interlaced=0 / bluray_compat=0 / stitchable=1 / constrained_intra=0 / bframes=3 / b_pyramid=2 / b_adapt=2 / b_bias=0 / direct=3 / weightb=1 / open_gop=0 / weightp=2 / keyint=infinite / keyint_min=30 / scenecut=40 / intra_refresh=0 / rc_lookahead=50 / rc=crf / mbtree=1 / crf=20.0 / qcomp=0.60 / qpmin=5 / qpmax=69 / qpstep=4 / vbv_maxrate=2750 / vbv_bufsize=7500 / crf_max=0.0 / nal_hrd=none / filler=0 / ip_ratio=1.40 / aq=1:1.00
Дата кодирования : UTC 2020-06-19 15:16:29
Дата пометки : UTC 2020-06-19 15:16:29
Цветовой диапазон : Limited
Основные цвета : BT.709
Характеристики трансфера : BT.709
Коэффициенты матрицы : BT.709
Codec configuration box : avcC
Аудио
Идентификатор : 2
Формат : AAC LC
Формат/Информация : Advanced Audio Codec Low Complexity
Идентификатор кодека : mp4a-40-2
Продолжительность : 13 м. 16 с.
Вид битрейта : Переменный
Битрейт : 253 Кбит/сек
Каналы : 2 канала
Channel layout : L R
Частота : 48,0 КГц
Частота кадров : 46,875 кадров/сек (1024 SPF)
Метод сжатия : С потерями
Размер потока : 24,1 Мбайт (27%)
Дата кодирования : UTC 2020-06-19 15:16:29
Дата пометки : UTC 2020-06-19 15:16:29

Этот курс для тех, кто:

Хотя бы на базовом уровне умеет моделировать в Maya, Blender, 3ds Max или любой аналогичной программе с полигонами.Сделал хотя бы одну интересуню модель, и может сказать: «Я замоделил это! Это точка "А", теперь я готов к большему!»Если не умеешь работать в ZBrush, Marvelous Designer и Fusion — ничего страшного, эти программы мы разберём с нуля.
А вот основы полигонального моделирования в Blender мы рассматривать не будем. Поэтому новичкам рекомендую для начала пройти наш бесплатный мини-курс об основах 3D моделирования.

Программа курса:

Блок 1. технический

40% контента от всей программы
ZBrush
Основы интерфейса. Навигация. Move, scale, rotate, кисти Работа с примитивами
Разрешение геометрии, Divide, DynaMesh
Работа с масками, полигруппами, Extract
Продвинутые инструменты для работы
Практическая часть
Blender
Основы интерфейса, базовые функции
Инструменты, которых не было в бесплатном мини-курсе
Инструменты для продвинутой работы
Практическая часть
Fusion
Основы интерфейса
Особенности работы в программе (grid, history, save, перспектива, камера)
Создание скетчей (виды скетчей, фаски, trim, offset, mirror, constraints)
Работа с панелью Solid (extrude, sweeper, pattern, press null, fillet, chamfer, combine, split body, move copy)
Вкладка Construct (offset plane, plane through, plane along)
Form modeling (общий пайплайн, примитивы box, plane, cylinder, quadraball; редактирование форм, insert edges, subdivide и другие функции)
Patch modeling
Практическая часть
Marvelous designer
Как и для чего нам нужна эта программа
Стандартный сетап для работы
Настройки симуляции
Инструменты для создания паттернов
Работа с shape, dart, line avatar
Настройки экспорта
Практическая часть

Блок 2. художественный

60% контента от всей программы
«Грани» красоты и работа над каждым из них:
— Силуэт
— Комплексность
— Детализация
— Ассиметрия
— Разность материалов
— Центр внимания
— Слоёность
— Контрасты форм
— Размеры объектов
— Несколько секретных, о которых ты узнаешь на курсе
По каждому пункту — теория, разбор на реальных моделях, практическое задание.

Примечание:

Второй блок скорей всего не полный
Основной вес составляют мастер классы и разбор домашек.
Скриншоты:
Скачать .torrent

Чтобы скачать торрент-файл

XYZ School, Женя Пак - Hard Surface (2020)

Вам нужно Авторизоваться на сайте под своим логином. Если у Вы ещё не зарегистрированы, тогда Вам нужно пройти Регистрацию


shikamarunara

Благодарю давно искал этот курс будет оьновление 2021?
Показать сообщения:    
Ответить на тему

Скачать XYZ School, Женя Пак - Hard Surface (2020) торрент бесплатно. Отзывы, слив складчины.

Текущее время: Сегодня 16:05

Часовой пояс: GMT + 4



Вы не можете начинать темы
Вы не можете отвечать на сообщения
Вы не можете редактировать свои сообщения
Вы не можете удалять свои сообщения
Вы не можете голосовать в опросах
Вы не можете прикреплять файлы к сообщениям
Вы не можете скачивать файлы