Полина Ишханова - Портрет карандашом-New (2020) торрент

Ответить на тему
 
Автор Сообщение

Prescious ®

Полина Ишханова | Портрет карандашом-New (2020) HDTVRip - Автор: Полина Ишханова
Жанр: Рисование
Описание:
На этом курсе вы научитесь рисовать портреты карандашом.
Курс — надежная система, которая ведет от простого к сложному,
формирует ясное понимание последовательности ведения рисунка.
Пакет базовый
Продолжительность: 29:54:54
Качество видео: HDTVRip
Видео: AVC/H.264, 720x1280, 50fps, ~1210 Кбит/сек
Аудио: AAC, 2 ch, 253 Кбит/сек

MediaInfo:

Полное имя                               : E:\Курсы\Портрет карандашом [Полина Ишханова]\6. Профиль и анфас\3. Портрет в анфас. Тон\4. Часть 4.mp4
Формат : MPEG-4
Профиль формата : Base Media / Version 2
Идентификатор кодека : mp42 (mp42/mp41/isom/avc1)
Размер файла : 128 Мбайт
Продолжительность : 12 м. 11 с.
Режим общего битрейта : Переменный
Общий поток : 1 471 Кбит/сек
Дата кодирования : UTC 2020-10-29 09:36:17
Дата пометки : UTC 2020-10-29 09:36:17
Видео
Идентификатор : 1
Формат : AVC
Формат/Информация : Advanced Video Codec
Профиль формата : High@L3.2
Настройки формата : CABAC / 5 Ref Frames
Параметр CABAC формата : Да
Параметр RefFrames формата : 5 кадров
Идентификатор кодека : avc1
Идентификатор кодека/Информация : Advanced Video Coding
Продолжительность : 12 м. 11 с.
Битрейт : 1 210 Кбит/сек
Ширина : 1 280 пикселей
Высота : 720 пикселей
Соотношение сторон : 16:9
Режим частоты кадров : Постоянный
Частота кадров : 50,000 кадров/сек
Цветовое пространство : YUV
Субдискретизация насыщенности : 4:2:0
Битовая глубина : 8 бит
Тип развёртки : Прогрессивная
Бит/(Пиксели*Кадры) : 0.026
Размер потока : 106 Мбайт (82%)
Библиотека кодирования : x264 core 161 r10 db0d417
Настройки программы : cabac=1 / ref=5 / deblock=1:0:0 / analyse=0x3:0x113 / me=hex / subme=8 / psy=1 / psy_rd=1.00:0.00 / mixed_ref=1 / me_range=16 / chroma_me=1 / trellis=2 / 8x8dct=1 / cqm=0 / deadzone=21,11 / fast_pskip=1 / chroma_qp_offset=-2 / threads=22 / lookahead_threads=3 / sliced_threads=0 / nr=0 / decimate=1 / interlaced=0 / bluray_compat=0 / stitchable=1 / constrained_intra=0 / bframes=3 / b_pyramid=2 / b_adapt=2 / b_bias=0 / direct=3 / weightb=1 / open_gop=0 / weightp=2 / keyint=infinite / keyint_min=50 / scenecut=40 / intra_refresh=0 / rc_lookahead=50 / rc=crf / mbtree=1 / crf=20.0 / qcomp=0.60 / qpmin=5 / qpmax=69 / qpstep=4 / vbv_maxrate=2750 / vbv_bufsize=7500 / crf_max=0.0 / nal_hrd=none / filler=0 / ip_ratio=1.40 / aq=1:1.00
Дата кодирования : UTC 2020-10-29 09:36:17
Дата пометки : UTC 2020-10-29 09:36:17
Цветовой диапазон : Limited
Основные цвета : BT.709
Характеристики трансфера : BT.709
Коэффициенты матрицы : BT.709
Codec configuration box : avcC
Аудио
Идентификатор : 2
Формат : AAC LC
Формат/Информация : Advanced Audio Codec Low Complexity
Идентификатор кодека : mp4a-40-2
Продолжительность : 12 м. 11 с.
Вид битрейта : Переменный
Битрейт : 253 Кбит/сек
Каналы : 2 канала
Channel layout : L R
Частота : 48,0 КГц
Частота кадров : 46,875 кадров/сек (1024 SPF)
Метод сжатия : С потерями
Размер потока : 22,1 Мбайт (17%)
Дата кодирования : UTC 2020-10-29 09:36:17
Дата пометки : UTC 2020-10-29 09:36:17
Скриншоты:
Скачать .torrent

Чтобы скачать торрент-файл

Полина Ишханова - Портрет карандашом-New (2020)

Вам нужно Авторизоваться на сайте под своим логином. Если у Вы ещё не зарегистрированы, тогда Вам нужно пройти Регистрацию


Показать сообщения:    
Ответить на тему

Скачать Полина Ишханова - Портрет карандашом-New (2020) торрент бесплатно. Отзывы, слив складчины.

Текущее время: Сегодня 15:22

Часовой пояс: GMT + 4



Вы не можете начинать темы
Вы не можете отвечать на сообщения
Вы не можете редактировать свои сообщения
Вы не можете удалять свои сообщения
Вы не можете голосовать в опросах
Вы не можете прикреплять файлы к сообщениям
Вы не можете скачивать файлы