HTML Academy - HTML и CSS. Профессиональная вёрстка сайтов (7 сентября — 8 ноября 2020) торрент

Ответить на тему
 
Автор Сообщение

Prescious ®

HTML Academy | HTML и CSS. Профессиональная вёрстка сайтов (2020) PCRec - Производство: HTML Academy
Жанр: Программирование, вёрстка
Описание:
Курс разработан для тех, кто хочет сменить профессию и стать высокооплачиваемым профессионалом. Он подойдёт для работающих людей, у которых мало времени.
Во время курса вы будете работать как настоящие верстальщики: поработаете с системой контроля версий в GitHub Desktop и с графическим макетом в редакторе Figma, создадите выразительную и доступную разметку, построите сетки страниц на гридах, поработаете с кастомными свойствами, анимацией, ретиновой графикой, оптимизируете код и подготовите завершённый проект к публикации. На каждом этапе вашу работу будет проверять и комментировать личный наставник.
Продолжительность: 19:18:81
Качество видео: PCRec
Видео: AVC, 1280x720-1920х1080, ~480 kb/s
Аудио: AAC, 2 ch, 128 kb/s

MediaInfo:

Общее
Полное имя : D:\Sliv\HTML и CSS. Профессиональная вёрстка сайтов [7 сентября — 8 ноября 2020] [HTML Academy]\1. Старт\HTML и CSS. Профессиональная вёрстка сайтов - 1 лекция.pdf
Формат : PDF
Версия формата : 1.3
Размер файла : 40,2 Мбайт
Текст
Формат : PDF
Общее
Полное имя : D:\Sliv\HTML и CSS. Профессиональная вёрстка сайтов [7 сентября — 8 ноября 2020] [HTML Academy]\1. Старт\Лайв #1 — HTML и CSS, уровень 1.mp4
Формат : MPEG-4
Профиль формата : Base Media
Идентификатор кодека : isom (isom/iso2/avc1/mp41)
Размер файла : 203 Мбайт
Продолжительность : 1 ч. 32 м.
Режим общего битрейта : Переменный
Общий поток : 307 Кбит/сек
Программа кодирования : Lavf58.56.100
Видео
Идентификатор : 1
Формат : AVC
Формат/Информация : Advanced Video Codec
Профиль формата : Main@L3.1
Настройки формата : CABAC / 1 Ref Frames
Параметр CABAC формата : Да
Параметр RefFrames формата : 1 кадр
Идентификатор кодека : avc1
Идентификатор кодека/Информация : Advanced Video Coding
Продолжительность : 1 ч. 32 м.
Вид битрейта : Переменный
Битрейт : 175 Кбит/сек
Максимальный битрейт : 480 Кбит/сек
Ширина : 1 280 пикселей
Высота : 720 пикселей
Соотношение сторон : 16:9
Режим частоты кадров : Постоянный
Частота кадров : 24,000 кадра/сек
Цветовое пространство : YUV
Субдискретизация насыщенности : 4:2:0
Битовая глубина : 8 бит
Тип развёртки : Прогрессивная
Бит/(Пиксели*Кадры) : 0.008
Размер потока : 115 Мбайт (57%)
Codec configuration box : avcC
Аудио
Идентификатор : 2
Формат : AAC LC
Формат/Информация : Advanced Audio Codec Low Complexity
Идентификатор кодека : mp4a-40-2
Продолжительность : 1 ч. 32 м.
Вид битрейта : Постоянный
Битрейт : 128 Кбит/сек
Каналы : 2 канала
Channel layout : L R
Частота : 44,1 КГц
Частота кадров : 43,066 кадра/сек (1024 SPF)
Метод сжатия : С потерями
Размер потока : 84,5 Мбайт (42%)
Заголовок : ISO Media file produced by Google Inc. Created on: 09/08/2020.
Язык : English
Default : Да
Alternate group : 1
Скриншоты:
Скачать .torrent

Чтобы скачать торрент-файл

HTML Academy - HTML и CSS. Профессиональная вёрстка сайтов (7 сентября — 8 ноября 2020)

Вам нужно Авторизоваться на сайте под своим логином. Если у Вы ещё не зарегистрированы, тогда Вам нужно пройти Регистрацию


Показать сообщения:    
Ответить на тему

Скачать HTML Academy - HTML и CSS. Профессиональная вёрстка сайтов (7 сентября — 8 ноября 2020) торрент бесплатно. Отзывы, слив складчины.

Текущее время: Сегодня 00:57

Часовой пояс: GMT + 4



Вы не можете начинать темы
Вы не можете отвечать на сообщения
Вы не можете редактировать свои сообщения
Вы не можете удалять свои сообщения
Вы не можете голосовать в опросах
Вы не можете прикреплять файлы к сообщениям
Вы не можете скачивать файлы