Udemy - Android разработка на Kotlin - с нуля до продвинутого уровня (2020) торрент

Ответить на тему
 
Автор Сообщение

Prescious ®

Udemy | Android разработка на Kotlin - с нуля до продвинутого уровня (2020) PCRec - Автор: Udemy
Производство: YouRa Allakhverdov
Жанр: Программирование, Java, Kotlin
Описание:
В этом курсе вы познакомитесь с возможностями разработки приложений для Android и приобретете навыки, которые позволят вам значительно повысить свои карьерные перспективы в качестве разработчика программного обеспечения.
С этим курсом вы получите лучшее из обоих миров - Java и Kotlin. Хотя Kotlin на данный момент является восходящей звездой разработки приложений для Android, существует огромное количество приложений, работающих на Java. Для поддержки этих приложений требуются программисты, знающие этот язык. Также, если вы будете искать решение какой-то проблемы, вы можете обнаружить его на языке Java.
Продолжительность: 16:06:39
Качество видео: PCRec
Язык озвучки: Русский
Видео: AVC/H.264, 1280х720, ~1390 Kbps
Аудио: AAC, 2 ch, 128 Kbps

MediaInfo:

Общее
Формат : MPEG-4
Профиль формата : Base Media
Идентификатор кодека : isom (isom/iso2/avc1/mp41)
Общий поток : 1 527 Кбит/сек
Программа кодирования : Lavf58.12.100
Видео
Идентификатор : 1
Формат : AVC
Формат/Информация : Advanced Video Codec
Профиль формата : Main@L3.1
Настройки формата : CABAC / 4 Ref Frames
Параметр CABAC формата : Да
Параметр RefFrames формата : 4 кадра
Идентификатор кодека : avc1
Идентификатор кодека/Информация : Advanced Video Coding
Битрейт : 1 390 Кбит/сек
Номинальный битрейт : 3 000 Кбит/сек
Ширина : 1 280 пикселей
Высота : 720 пикселей
Соотношение сторон : 16:9
Режим частоты кадров : Постоянный
Частота кадров : 30,000 кадров/сек
Цветовое пространство : YUV
Субдискретизация насыщенности : 4:2:0
Битовая глубина : 8 бит
Тип развёртки : Прогрессивная
Бит/(Пиксели*Кадры) : 0.050
Размер потока : 45,5 Мбайт (91%)
Библиотека кодирования : x264 core 148
Codec configuration box : avcC
Аудио
Идентификатор : 2
Формат : AAC LC
Формат/Информация : Advanced Audio Codec Low Complexity
Идентификатор кодека : mp4a-40-2
Duration_LastFrame : -1 мс.
Вид битрейта : Постоянный
Битрейт : 128 Кбит/сек
Каналы : 2 канала
Channel layout : L R
Частота : 48,0 КГц
Частота кадров : 46,875 кадров/сек (1024 SPF)
Метод сжатия : С потерями
Размер потока : 4,19 Мбайт (8%)
Default : Да
Alternate group : 1

Дополнительная информация:

Стоит ли учить Котлин?
Теперь, когда Google так сильно настаивает на том, чтобы разработчики Android использовали Kotlin, мы наблюдаем резкий переход на Kotlin - это похоже на ситуацию с iOS несколько лет назад с Objective-C, когда Apple выпустила Swift.
Прошло несколько лет, и все используют Swift. Это начинает происходить с разработкой приложений для Android. Разработчики, которые раньше использовали Java, переключаются на Kotlin. Вы можете понять, почему Google хочет, чтобы это произошло. Они неоднократно судились с Oracle (владельцами Java) по поводу использовании языка Java.
На недавней конференции Google I/O показаны в основном примеры кода Kotlin. Вы можете видеть, куда мы идем. Kotlin - это будущее для разработки приложений для Android.
Вскоре мало кто из разработчиков Java будет писать приложения для Android - они будут использовать Kotlin.
Хорошей новостью является то, что в этот курс включает в себя изучение языка Kotlin. Таким образом, мы будем не только использовать Kotlin в этом курсе, но мы также изучим Kotlin. Вы узнаете, как использовать язык Kotlin в этом курсе.
Xто вы узнаете в курсе:
Как скачать, установить и настроить необходимое (бесплатное) программное обеспечение.
Как создать свое первое приложение.
Как создать ряд приложений, демонстрирующих ключевые аспекты платформы Android.
Как тестировать свои приложения на эмуляторах или реальном телефоне или планшете Android.
Вы изучите язык программирования Java.
Вы изучите язык программирования Kotlin, потому что Google рекомендует и активно внедряет Kotlin для разработки приложений для Android.
Вы изучите новую разметку ConstraintLayout.
Чему вы научитесь:
Изучите основы языка Java и Kotlin.
Изучите основы разработки реальных Android приложений на языке Kotlin.
Изучите все тонкости разработки интерфейса при помощи различных ViewGroups, включая ConstraintLayout.
Для кого этот курс:
Этот курс подходит для начинающих, не имеющих опыта программирования.
Этот курс подходит для Android Java разработчиков, которые хотят перейти на Kotlin для разработки приложений для Android.
Скриншоты:
Скачать .torrent

Чтобы скачать торрент-файл

Udemy - Android разработка на Kotlin - с нуля до продвинутого уровня (2020)

Вам нужно Авторизоваться на сайте под своим логином. Если у Вы ещё не зарегистрированы, тогда Вам нужно пройти Регистрацию


Показать сообщения:    
Ответить на тему

Скачать Udemy - Android разработка на Kotlin - с нуля до продвинутого уровня (2020) торрент бесплатно. Отзывы, слив складчины.

Текущее время: Сегодня 14:34

Часовой пояс: GMT + 4



Вы не можете начинать темы
Вы не можете отвечать на сообщения
Вы не можете редактировать свои сообщения
Вы не можете удалять свои сообщения
Вы не можете голосовать в опросах
Вы не можете прикреплять файлы к сообщениям
Вы не можете скачивать файлы