OTUS - AWS для разработчиков (Часть 1-3) (2020) торрент

Ответить на тему
 
Автор Сообщение

Prescious ®

OTUS | AWS для разработчиков (Часть 1-3) (2020) PCRec - Автор: OTUS
Жанр: Программирование
Описание:
В курсе сделан основной упор на выполнение практических задач в облачной системе AWS, с которыми может столкнуться программист / технический руководитель, как в малом стартапе, так и в большой компании. Подобные задачи включают в себя весь жизненный цикл становления проекта: от планирования архитектуры и выбора инфраструктуры, и заканчивая вводом системы в промышленную эксплуатацию, со всем вытекающим (ci/cd, мониторинг, и т.д.).
Продолжительность: 41:12:51
Качество видео: PCRec
Видео: AVC/H.264, 1920x1080, ~227 Kbps
Аудио: AAC, 1 ch, 52,9 Kbps

MediaInfo:

Общее
Полное имя : [OTUS] AWS для разработчиков (Часть 1-2) (2020)\1. Введение в облачные сервисы\cloud services introduction.mp4
Формат : MPEG-4
Профиль формата : Base Media / Version 2
Идентификатор кодека : mp42 (isom/mp42)
Размер файла : 147 Мбайт
Продолжительность : 1 ч. 12 м.
Режим общего битрейта : Переменный
Общий поток : 282 Кбит/сек
Дата кодирования : UTC 2020-02-27 18:58:42
Дата пометки : UTC 2020-02-27 18:58:42
Видео
Идентификатор : 1
Формат : AVC
Формат/Информация : Advanced Video Codec
Профиль формата : High@L5
Настройки формата : CABAC / 11 Ref Frames
Параметр CABAC формата : Да
Параметр RefFrames формата : 11 кадров
Идентификатор кодека : avc1
Идентификатор кодека/Информация : Advanced Video Coding
Продолжительность : 1 ч. 12 м.
Битрейт : 227 Кбит/сек
Ширина : 1 920 пикселей
Высота : 1 080 пикселей
Соотношение сторон : 16:9
Режим частоты кадров : Постоянный
Частота кадров : 25,000 кадров/сек
Цветовое пространство : YUV
Субдискретизация насыщенности : 4:2:0
Битовая глубина : 8 бит
Тип развёртки : Прогрессивная
Бит/(Пиксели*Кадры) : 0.004
Размер потока : 118 Мбайт (80%)
Заголовок : H.264/AVC video
Дата кодирования : UTC 2020-02-27 18:58:42
Дата пометки : UTC 2020-02-27 18:58:42
Codec configuration box : avcC
Аудио
Идентификатор : 2
Формат : AAC LC
Формат/Информация : Advanced Audio Codec Low Complexity
Идентификатор кодека : mp4a-40-2
Продолжительность : 1 ч. 12 м.
Вид битрейта : Переменный
Битрейт : 52,9 Кбит/сек
Максимальный битрейт : 114 Кбит/сек
Каналы : 1 канал
Channel layout : C
Частота : 32,0 КГц
Частота кадров : 31,250 кадров/сек (1024 SPF)
Метод сжатия : С потерями
Размер потока : 27,6 Мбайт (19%)
Заголовок : AAC audio
Дата кодирования : UTC 2020-02-27 18:58:42
Дата пометки : UTC 2020-02-27 18:58:42

Дополнительная информация:

Фишки курса:
- много практики: соотношение теории и практики 20/80
- решение реальных задач на протяжении всего курса (создание своего приложения)
- только нужные сервисы: данный курс будет включать в себя весь необходимый набор сервисов, который - поможет при развертке инфраструктуры
Создание реального проекта
Весь курс ориентирован на создание крупной информационной системы, которая будет в себя включать разного рода задачи: начиная от построения простого REST API, и заканчивая микросервисами, отложенными задачами и т.д. Задачи на разработку будут даваться в виде домашних заданий, в то время как развертка и настройка приложения в облаке будет происходить уже на самом вебинаре.
Темы организованы таким образом, чтобы решение каждой задачи было сопряжено с конкретным сервисом, рассматриваемым в рамках вебинара. Подобный подход даст слушателю не только представление о возможностях данного сервиса, но еще и практическое применение на реальных задачах.
Примеры практических домашних заданий (одни из):
- декомпозиция своего приложения с помощью облачных сервисов
- поставка ПО и автоматизация CI/CD
- формирование гибридной инфраструктуры или безболезненный переезд в облако
После курса вы научитесь:
- планировать и развертывать инфраструктуру в облачной системе (начиная от деплоя приложения и заканчивая настройкой приватной сети, CDN и репозиториев), на базе AWS;
- проектировать архитектуру, с учетом особенностей облачных решений и предоставляемых ими сервисов;
- поймете, как считать экономику и планировать бюджет, исходя из потребностей архитектуры.
Курс подойдет:
-разработчикам с опытом работы уровня middle+ / senior / team lead, которым необходимо развертывать приложения, настраивать инфраструктуру, БД, думать о вопросах безопасности и экономике ресурсов
- специалистам, которые хотят развить практические навыки работы с облачными сервисами и которые уже занимаются разработкой веб-приложений, порталов, сервисов (или любым другим видом backend-разработки)
Скриншоты:
Скачать .torrent

Чтобы скачать торрент-файл

OTUS - AWS для разработчиков (Часть 1-3) (2020)

Вам нужно Авторизоваться на сайте под своим логином. Если у Вы ещё не зарегистрированы, тогда Вам нужно пройти Регистрацию


Показать сообщения:    
Ответить на тему

Скачать OTUS - AWS для разработчиков (Часть 1-3) (2020) торрент бесплатно. Отзывы, слив складчины.

Текущее время: Сегодня 15:59

Часовой пояс: GMT + 4



Вы не можете начинать темы
Вы не можете отвечать на сообщения
Вы не можете редактировать свои сообщения
Вы не можете удалять свои сообщения
Вы не можете голосовать в опросах
Вы не можете прикреплять файлы к сообщениям
Вы не можете скачивать файлы