Podlodka QA Crew - Сезон 2. Мобильное тестирование и метрики (2020) торрент

Ответить на тему
 
Автор Сообщение

Prescious ®

Podlodka QA Crew | Сезон 2. Мобильное тестирование и метрики (2020) PCRec
- Производство: Podlodka QA Crew
Жанр: QA, тестирование
Описание:
Разбираемся с инфраструктурой, фреймворками и паттернами автоматизации iOS и Android приложений. Учимся считать метрики тестов, оценивать их качество, и доказывать их пользу!
Продолжительность: 24:50:52
Качество видео: PCRec
Видео: AVC/H.264, 1280x720, ~527 Kbps
Аудио: AAC, 2 ch, ~128 Kbps

MediaInfo:

Общее
Полное имя : D:\nnm\Podlodka QA Crew. Сезон 2. Мобильное тестирование и метрики (2020)\1. Podlodka QA Crew – Управляем мобильным зоопарком.mp4
Формат : MPEG-4
Профиль формата : Base Media / Version 2
Идентификатор кодека : mp42 (isom/mp42)
Размер файла : 409 Мбайт
Продолжительность : 1 ч. 26 м.
Режим общего битрейта : Переменный
Общий поток : 658 Кбит/сек
Дата кодирования : UTC 2020-10-16 05:36:12
Дата пометки : UTC 2020-10-16 05:36:12
gsst : 0
gstd : 5215039
Видео
Идентификатор : 1
Формат : AVC
Формат/Информация : Advanced Video Codec
Профиль формата : High@L3.1
Настройки формата : CABAC / 3 Ref Frames
Параметр CABAC формата : Да
Параметр RefFrames формата : 3 кадра
Идентификатор кодека : avc1
Идентификатор кодека/Информация : Advanced Video Coding
Продолжительность : 1 ч. 26 м.
Битрейт : 527 Кбит/сек
Ширина : 1 280 пикселей
Высота : 720 пикселей
Соотношение сторон : 16:9
Режим частоты кадров : Постоянный
Частота кадров : 30,000 кадров/сек
Цветовое пространство : YUV
Субдискретизация насыщенности : 4:2:0
Битовая глубина : 8 бит
Тип развёртки : Прогрессивная
Бит/(Пиксели*Кадры) : 0.019
Размер потока : 328 Мбайт (80%)
Заголовок : ISO Media file produced by Google Inc. Created on: 10/15/2020.
Дата кодирования : UTC 2020-10-16 05:36:12
Дата пометки : UTC 2020-10-16 05:36:12
Цветовой диапазон : Limited
Основные цвета : BT.709
Характеристики трансфера : BT.709
Коэффициенты матрицы : BT.709
Codec configuration box : avcC
Аудио
Идентификатор : 2
Формат : AAC LC
Формат/Информация : Advanced Audio Codec Low Complexity
Идентификатор кодека : mp4a-40-2
Продолжительность : 1 ч. 26 м.
Вид битрейта : Переменный
Битрейт : 128 Кбит/сек
Каналы : 2 канала
Channel layout : L R
Частота : 44,1 КГц
Частота кадров : 43,066 кадра/сек (1024 SPF)
Метод сжатия : С потерями
Размер потока : 79,6 Мбайт (19%)
Заголовок : ISO Media file produced by Google Inc. Created on: 10/15/2020.
Язык : English
Дата кодирования : UTC 2020-10-16 05:36:12
Дата пометки : UTC 2020-10-16 05:36:12
Скриншоты:
Скачать .torrent

Чтобы скачать торрент-файл

Podlodka QA Crew - Сезон 2. Мобильное тестирование и метрики (2020)

Вам нужно Авторизоваться на сайте под своим логином. Если у Вы ещё не зарегистрированы, тогда Вам нужно пройти Регистрацию


Показать сообщения:    
Ответить на тему

Скачать Podlodka QA Crew - Сезон 2. Мобильное тестирование и метрики (2020) торрент бесплатно. Отзывы, слив складчины.

Текущее время: Сегодня 00:36

Часовой пояс: GMT + 4



Вы не можете начинать темы
Вы не можете отвечать на сообщения
Вы не можете редактировать свои сообщения
Вы не можете удалять свои сообщения
Вы не можете голосовать в опросах
Вы не можете прикреплять файлы к сообщениям
Вы не можете скачивать файлы