Podlodka QA Crew - Карьерный рост и процессы тестирования (2020) торрент

Ответить на тему
 
Автор Сообщение

Prescious ®

Podlodka QA Crew | Карьерный рост и процессы тестирования (2020) PCRec
- Производство: Podlodka QA Crew
Жанр: QA, тестирование
Описание:
Поговорим о многообразии компетенций современного QA инженера, о том, почему недостаточно просто «войти в айти», и о том, как строить свое развитие эффективно. Обсудим, какие существуют альтернативы «классическому» разветвлению специалистов в области обеспечения качества – в технари/автоматизаторы или в менеджеры и что для этого нужно знать и уметь.
Эксперты с опытом работы в международных компаниях поделятся спецификой требований к кандидатам на иностранных рынках.

Продолжение описания:

Ну и наконец, мы приоткроем завесу тайны и вместе с приглашёнными гостями ответим на вопрос «есть ли жизнь после QA?», в кого, как и почему можно вырасти после бесчисленных тест-кейсов, багрепортов и отчетов по тестированию.
Организация процессов обеспечения качества
Обеспечение качества – это целый комплекс мероприятий, который зиждется на выверенных процессах, участниками которых являются не только QA инженеры, но и разработчики, DevOps, техподдержка, Product Owner и другие участники процесса разработки ПО. Вместе с приглашёнными экспертами поговорим о стратегии, планировании, инструментах, подходах, метриках, распространённых проблемах и способах их решения.
Под прицелом будут как вопросы организации процессов с нуля, так и советы бывалых профессионалов по подобным задачам в развитых структурах.
Мы разберёмся почему организация процессов – не всегда дело рук управленцев, когда стоит проявить инициативу и взяться за их строительство снизу.
Продолжительность: 26:54:13
Качество видео: PCRec
Видео: AVC/H.264, 768x480-1920x1080, ~663 Kbps
Аудио: AAC, 2 ch, ~128 Kbps

MediaInfo:

Общее
Полное имя : D:\nnm\Podlodka QA Crew - Карьерный рост и процессы тестирования (2020)\01 - Воркшоп разбираем матрицу компетенций QA Алексей Петров - aKcqFVOsDGs.mp4
Формат : MPEG-4
Профиль формата : Base Media
Идентификатор кодека : isom (isom/iso2/avc1/mp41)
Размер файла : 494 Мбайт
Продолжительность : 1 ч. 26 м.
Общий поток : 797 Кбит/сек
Программа кодирования : Lavf58.29.100
Видео
Идентификатор : 1
Формат : AVC
Формат/Информация : Advanced Video Codec
Профиль формата : High@L4
Настройки формата : CABAC / 3 Ref Frames
Параметр CABAC формата : Да
Параметр RefFrames формата : 3 кадра
Идентификатор кодека : avc1
Идентификатор кодека/Информация : Advanced Video Coding
Продолжительность : 1 ч. 26 м.
Битрейт : 663 Кбит/сек
Ширина : 1 920 пикселей
Высота : 1 080 пикселей
Соотношение сторон : 16:9
Режим частоты кадров : Постоянный
Частота кадров : 25,000 кадров/сек
Цветовое пространство : YUV
Субдискретизация насыщенности : 4:2:0
Битовая глубина : 8 бит
Тип развёртки : Прогрессивная
Бит/(Пиксели*Кадры) : 0.013
Размер потока : 411 Мбайт (83%)
Заголовок : ISO Media file produced by Google Inc.
Цветовой диапазон : Limited
Основные цвета : BT.709
Характеристики трансфера : BT.709
Коэффициенты матрицы : BT.709
Codec configuration box : avcC
Аудио
Идентификатор : 2
Формат : AAC LC
Формат/Информация : Advanced Audio Codec Low Complexity
Идентификатор кодека : mp4a-40-2
Продолжительность : 1 ч. 26 м.
Вид битрейта : Постоянный
Битрейт : 128 Кбит/сек
Каналы : 2 канала
Channel layout : L R
Частота : 44,1 КГц
Частота кадров : 43,066 кадра/сек (1024 SPF)
Метод сжатия : С потерями
Размер потока : 79,3 Мбайт (16%)
Заголовок : ISO Media file produced by Google Inc.
Default : Да
Alternate group : 1
Скриншоты:
Скачать .torrent

Чтобы скачать торрент-файл

Podlodka QA Crew - Карьерный рост и процессы тестирования (2020)

Вам нужно Авторизоваться на сайте под своим логином. Если у Вы ещё не зарегистрированы, тогда Вам нужно пройти Регистрацию


Показать сообщения:    
Ответить на тему

Скачать Podlodka QA Crew - Карьерный рост и процессы тестирования (2020) торрент бесплатно. Отзывы, слив складчины.

Текущее время: Сегодня 15:20

Часовой пояс: GMT + 4



Вы не можете начинать темы
Вы не можете отвечать на сообщения
Вы не можете редактировать свои сообщения
Вы не можете удалять свои сообщения
Вы не можете голосовать в опросах
Вы не можете прикреплять файлы к сообщениям
Вы не можете скачивать файлы