Podlodka Teamlead Crew - Коммуникации в команде и процессы разработки (2020) торрент

Ответить на тему
 
Автор Сообщение

Prescious ®

Podlodka Teamlead Crew | Коммуникации в команде и процессы разработки (2020) PCRec
- Производство: Podlodka Teamlead Crew
Жанр: Разработка ПО
Описание:
Две недели интенсива по темам, которые волнуют любого тимлида. Все активности оптимизированы под то, чтобы вы получили новые навыки и инструменты, сидя в своём уютном домашнем кресле в любом часовом поясе.
Первая неделя: "Увольнения / Коммуникации в команде"
На первой неделе мы рассмотрим сразу две горячие темы, которые сильно пересекаются.

Продолжение описания:

Научишься техникам коммуникаций
Наши эксперты разберут на кирпичики разные виды коммуникаций – переговоры, решение конфликтов, публичные выступления. Каждый из них вы сможете отработать на практике, задать свои вопросы и разобрать свой личный опыт.
Прокачаешь навык дачи обратной связи
Обратная связь – необходимая составляющая обеих тем недели. Наши эксперты проведут показательные сессии One-to-one и увольнения, где покажут, как давать обратную связь так, чтобы она была услышана.
Узнаешь, как увольнять людей
Увольнять людей – чертовски больно и сложно. Мы научим тому, как пройти через этот неприятный процесс таким образом, чтобы не нарушить трудовой кодекс, разойтись в хороших отношениях и минимизировать ущерб для команды.
Вторая неделя: "Процессы разработки"
Вместо чтения сухой теории вы узнаете о том, как работают и добиваются результатов реальные команды
Посмотришь, как работают крутые лиды
Эксперты из очень разных команд и компаний расскажут, как и почему у них менялись процессы разработки, как они измеряли их эффективность и внедряли изменения.
Разберешься, нужны ли все эти скрамы
Мы дадим критический обзор известных фреймворков, научим замечать дисфункции и не поддаваться карго-культу.
Починишь процесс своей команды
Копится бэклог багов? Постоянно промахиваетесь мимо оценок? Нужно строить отношения с кучей команд? Эксперты будут разбирать ваши кейсы и проблемы как в Slack, так и в Zoom-сессиях.
Продолжительность: 83:42:21
Качество видео: PCRec
Видео: AVC/H.264, 1152x720, ~424 Kbps
Аудио: AAC, 2 ch, ~128 Kbps

MediaInfo:

Общее
Полное имя : D:\nnm\Podlodka Teamlead Crew - Коммуникации в команде и процессы разработки\часть 1\01 - Podlodka TeamLead Crew. Личный опыт Георгий Могелашвили.mp4
Формат : MPEG-4
Профиль формата : Base Media
Идентификатор кодека : isom (isom/iso2/avc1/mp41)
Размер файла : 285 Мбайт
Продолжительность : 1 ч. 11 м.
Общий поток : 557 Кбит/сек
Программа кодирования : Lavf58.29.100
Видео
Идентификатор : 1
Формат : AVC
Формат/Информация : Advanced Video Codec
Профиль формата : Main@L3.1
Настройки формата : CABAC / 1 Ref Frames
Параметр CABAC формата : Да
Параметр RefFrames формата : 1 кадр
Идентификатор кодека : avc1
Идентификатор кодека/Информация : Advanced Video Coding
Продолжительность : 1 ч. 11 м.
Битрейт : 424 Кбит/сек
Ширина : 1 152 пикселя
Высота : 720 пикселей
Соотношение сторон : 16:10
Режим частоты кадров : Постоянный
Частота кадров : 25,000 кадров/сек
Цветовое пространство : YUV
Субдискретизация насыщенности : 4:2:0
Битовая глубина : 8 бит
Тип развёртки : Прогрессивная
Бит/(Пиксели*Кадры) : 0.020
Размер потока : 217 Мбайт (76%)
Заголовок : ISO Media file produced by Google Inc. Created on: 06/16/2020.
Цветовой диапазон : Limited
Основные цвета : BT.709
Характеристики трансфера : BT.709
Коэффициенты матрицы : BT.709
Codec configuration box : avcC
Аудио
Идентификатор : 2
Формат : AAC LC
Формат/Информация : Advanced Audio Codec Low Complexity
Идентификатор кодека : mp4a-40-2
Продолжительность : 1 ч. 11 м.
Вид битрейта : Постоянный
Битрейт : 128 Кбит/сек
Каналы : 2 канала
Channel layout : L R
Частота : 44,1 КГц
Частота кадров : 43,066 кадра/сек (1024 SPF)
Метод сжатия : С потерями
Размер потока : 65,5 Мбайт (23%)
Заголовок : ISO Media file produced by Google Inc.
Default : Да
Alternate group : 1
Скриншоты:
Скачать .torrent

Чтобы скачать торрент-файл

Podlodka Teamlead Crew - Коммуникации в команде и процессы разработки (2020)

Вам нужно Авторизоваться на сайте под своим логином. Если у Вы ещё не зарегистрированы, тогда Вам нужно пройти Регистрацию


Показать сообщения:    
Ответить на тему

Скачать Podlodka Teamlead Crew - Коммуникации в команде и процессы разработки (2020) торрент бесплатно. Отзывы, слив складчины.

Текущее время: Сегодня 14:32

Часовой пояс: GMT + 4



Вы не можете начинать темы
Вы не можете отвечать на сообщения
Вы не можете редактировать свои сообщения
Вы не можете удалять свои сообщения
Вы не можете голосовать в опросах
Вы не можете прикреплять файлы к сообщениям
Вы не можете скачивать файлы